<?xml version="1.0" standalone="no"?>
<!DOCTYPE svg PUBLIC "-//W3C//DTD SVG 1.1//EN" "http://www.w3.org/Graphics/SVG/1.1/DTD/svg11.dtd">
<svg xmlns="http://www.w3.org/2000/svg">
<metadata>Copyright (C) 2021 by original authors @ fontello.com</metadata>
<defs>
<font id="fontello" horiz-adv-x="1000" >
<font-face font-family="fontello" font-weight="400" font-stretch="normal" units-per-em="1000" ascent="850" descent="-150" />
<missing-glyph horiz-adv-x="1000" />
<glyph glyph-name="cafeteria" unicode="&#xe800;" d="M407 312c7 7 7 18 1 25-18 22-37 37-70 31-15-3-37 12-51 25-49 46-97 94-144 142-40 40-42 83-8 116 32 31 77 28 114-9 76-76 151-152 226-227 8-8 20-7 27 0 8 8 15 16 23 24 6 6 7 16 2 23-27 40-22 52 22 96 49 49 98 99 148 148 13 13 28 31 47 12 20-20 3-35-11-50-42-38-81-77-123-118-8-8-8-21 1-28 4-3 8-7 12-10 8-7 19-6 26 1 42 44 117 122 121 124 0 0 22 33 48 21 12-6 21-24-11-56-37-37-73-75-110-112-4-4-8-8-12-13-7-8-7-20 1-27 3-2 5-5 8-7 7-7 19-7 26 1 40 40 80 80 120 120 14 14 29 28 47 11 19-18 3-34-10-47-50-50-100-100-150-150-42-42-58-47-100-15-8 6-19 5-25-2-7-7-14-15-21-23-7-7-7-19 0-26 4-4 8-8 12-13 75-75 149-149 224-224 29-29 32-59 9-82-24-23-51-20-82 10-79 77-156 155-237 235-7 7-19 7-26 1-5-5-10-9-15-14-75-75-150-151-226-226-35-34-85-24-91 19-2 18 9 43 23 57 72 75 147 149 221 222 5 5 9 9 14 15z" horiz-adv-x="1000" />

<glyph glyph-name="time-location" unicode="&#xe801;" d="M399-29c-11 0-20 8-21 18-13 75-90 208-156 317 0 1-40 68-51 95-15 39-19 83-11 129 10 54 38 103 79 138 46 39 104 61 164 61 60 0 118-22 162-61 40-33 66-78 77-129 9-42 7-86-6-128-4-11-16-17-27-13-12 3-18 15-14 27 11 34 13 70 6 105-10 41-31 78-63 105-37 33-85 50-135 50-50 1-98-17-136-49-34-29-56-69-65-114-6-37-3-73 9-104 9-21 41-78 48-91 72-118 147-250 161-331 1-12-6-23-18-25-1 0-2 0-3 0z m338 211h-59v59c0 11-9 21-21 21s-22-10-22-21v-80c0-12 10-22 22-22 0 0 1 0 1 0h79c12 0 22 10 22 22s-10 21-22 21z m107-21c0 103-84 187-187 187s-188-84-188-187 84-188 187-188 188 84 188 188z m-43 0c0-80-65-145-144-145s-145 65-145 145 65 144 145 144 144-64 144-144z m-329 332c0 39-31 70-70 70s-69-32-69-70 31-69 69-69 70 31 70 69z m-43 0c0-14-12-26-27-26s-26 12-26 26 12 27 26 27 27-12 27-27z" horiz-adv-x="1000" />

<glyph glyph-name="report" unicode="&#xe802;" d="M928 758c0 67-24 92-90 92-226 0-452 0-678 0-64 0-88-25-88-90-1-135 0-270 0-405 0-139-1-277 0-415 0-65 24-90 88-90 224 0 449 0 673 0 73 0 96 23 96 96 0 271 0 542-1 812z m-77-838c-230 0-470 0-710 0 0 280 0 560 0 860 240 0 480 0 710 0 0-280 0-560 0-860z m-180 430h-60v350h60v-350z m-100 0h-70v150h70v-150z m-200 0h-70v110h70v-110z m90 0h-70v240h70v-240z m320-90h-550v60h550v-60z m0-240h-550v170h550v-170z" horiz-adv-x="1000" />

<glyph glyph-name="fire" unicode="&#xe803;" d="M7 238q10 41 50 131t44 146q39-72 45-145 148 184 154 428 10-6 25-17t58-45 74-74 61-96 34-118q15 36 19 79t-9 80q15-12 41-39t56-75 56-99 31-118-9-127-72-127-152-120q64 129 25 278t-154 229q10-43-11-141t-65-150q7 63 4 102t-12 59l-10 17q-12-70-60-140-26-38-39-69t-9-80 30-105q-135 76-181 154t-24 182z" horiz-adv-x="748" />

<glyph glyph-name="search" unicode="&#xe804;" d="M680 112c-197-137-397-46-479 70-96 138-79 323 44 438 120 113 307 119 436 16 122-97 179-291 56-466 39-38 78-77 117-116 8-8 16-16 24-24 16-19 16-42-1-58-16-16-40-17-58 0-27 26-53 52-79 79-21 20-41 41-60 61z m-457 264c0-136 112-249 248-249 139-1 252 111 252 250 0 137-113 250-250 249-139 0-250-112-250-250z" horiz-adv-x="1000" />

<glyph glyph-name="face_template_deleted" unicode="&#xe805;" d="M405-29c-33 0-77 3-111 7-16 2-28 8-35 18-8 10-10 24-7 39 4 24-1 46-15 65-13 17-25 36-35 53-12 21-24 40-39 58-40 49-41 115-42 162 0 12 7 30 22 35 7 2 7 2 6 18 0 4 0 7 0 11l0 3c0 32 0 66 8 100 28 118 122 189 252 189 0 0 1 0 1 0 129 0 223-71 251-189 8-34 8-68 9-100l0-3c0-12-10-22-22-22-12 0-21 10-21 22l0 3c-1 31-1 61-8 91-23 97-101 155-209 155 0 0-1 0-1 0-108 0-187-58-210-155-7-30-7-60-8-91l0-3c0-3 0-6 0-8 1-15 2-45-27-58 1-53 4-99 32-132 16-20 29-42 42-63 11-17 21-34 33-50 22-28 30-62 23-98-1-3-1-5-1-6 1-1 3-1 6-1 33-4 78-7 110-6 29 0 73 2 110 6 12 1 22-7 23-19 2-12-7-22-18-23-39-5-85-7-115-7-1-1-2-1-4-1z m474 228c0 106-87 192-192 192s-192-86-192-192 86-192 192-192 192 86 192 192z m-43 0c0-82-67-149-149-149s-149 67-149 149 66 149 149 149 149-67 149-149z m-46 0c0 12-9 22-21 22h-164c-12 0-22-10-22-22s10-21 22-21h164c12 0 21 9 21 21z" horiz-adv-x="1000" />

<glyph glyph-name="plus-squared" unicode="&#xe806;" d="M700 750q42 0 71-29t29-71l0-600q0-40-29-70t-71-30l-600 0q-40 0-70 30t-30 70l0 600q0 42 30 71t70 29l600 0z m-50-450l0 100-200 0 0 200-100 0 0-200-200 0 0-100 200 0 0-200 100 0 0 200 200 0z" horiz-adv-x="800" />

<glyph glyph-name="employee" unicode="&#xe807;" d="M495-150c195 0 364 109 451 269 3 6 6 35 4 43-5 36-22 64-58 77-29 10-58 21-87 30-28 9-57 17-85 26-14 4-25 11-35 23-12 14-27 25-43 35-15 11-21 24-24 41-5 31 5 58 15 85 6 18 15 36 24 53 14 26 21 54 18 83-1 5-2 10-4 13-7 8-8 18-9 29-1 16-1 34-2 50-1 12-3 23-5 34-7 30-26 51-48 70-11 10-26 12-40 15-7 1-15 2-22 3-11 1-20 4-29 10-13 10-29 12-44 11-22-3-43-6-64-11-30-7-54-26-73-51-10-12-19-24-28-36-13-18-17-39-20-60-6-44-3-87 2-130 1-6 2-13 2-19 1-19 12-32 24-45 4-5 9-10 13-15 10-11 17-23 22-38 4-15 11-29 18-43 7-13 9-28 10-42 1-4-3-12-7-14-19-8-32-24-45-39-12-15-26-26-43-32-46-16-92-31-138-46-20-7-40-12-60-17-14-4-21-12-24-25-4-16-8-32-11-48-2-7 0-29 2-34 89-153 254-255 443-255z m22 411c26 23 53 47 80 70 8 8 18 14 26 21 5 5 9 4 13 0 4-4 9-7 12-11 3-3 4-7 6-10-4-26-7-51-11-75-1-6-4-11-8-15-14-20-29-39-43-59-4-5-8-6-14-1-20 21-41 42-62 63-7 7-6 10 1 17z m-15-74c9 9 18 18 28 26 1 1 7 0 9-2 13-11 25-23 38-34 9-7 9-8 17 1 13 16 25 33 38 50 1 1 3 3 6 5-11-85-30-168-48-251-2 0-3 0-4 0-2 4-3 7-5 10-24 56-47 113-71 169-2 5-6 10-8 15-1 3-2 9 0 11z m-47-27c-12-41-23-83-35-125-1-2-2-4-2-7-1 0-2 0-3 0-24 51-39 105-48 161 1 0 1 0 2 1 5-10 10-19 16-30 20 18 38 35 58 54 2-6 5-11 8-15 8-13 8-25 4-39z m-106 165c5 4 10 8 16 13 3 2 7 3 10 6 5 7 10 4 14-1 24-25 48-51 71-77 7-7 7-11 0-19-16-19-33-37-50-56-6-6-13-12-19-18-4-4-8-3-10 1-5 12-12 24-14 36-9 36-15 72-23 107 2 4 3 6 5 8z" horiz-adv-x="1000" />

<glyph glyph-name="compliance" unicode="&#xe808;" d="M774 442c0-37-2-75 0-112 5-80-26-145-76-204-49-56-109-99-169-142-13-10-29-13-43-3-86 58-169 119-222 210-20 34-31 73-31 113-1 99-1 197-1 296 0 16 8 22 22 23 21 2 41 3 62 7 64 11 116 46 165 86 16 13 29 15 45 0 61-58 134-85 216-92 31-3 32-5 32-36-1-49-1-98 0-146-1 0-1 0 0 0z m-62 106c0 6-7 16-12 17-65 7-120 36-171 73-18 13-32 13-49 1-51-36-106-63-168-72-18-2-21-9-21-25 1-72 1-144 0-215-1-59 19-109 56-154 41-49 92-87 145-123 5-3 17-2 23 2 60 39 113 85 158 142 20 26 34 54 35 87 2 48 5 226 4 267z m-334-330c7 19 14 39 21 58 2 6 6 12 10 17 60 61 121 122 182 182 4 4 8 7 12 10 5 3 6 5 13 0 9-9 23-22 32-32 9-9 4-14-4-23-63-64-127-127-190-190-3-3-7-4-11-6-21-7-43-14-64-21-1 2-1 3-1 5z m180 211c12-12 23-24 34-35 6 6 13 13 18 19-11 11-23 23-35 35-5-7-11-13-17-19z m-152-160c-3-10-7-19-9-28 0-3 6-10 9-9 9 2 18 6 27 8-10 10-18 19-27 29z" horiz-adv-x="1000" />

<glyph glyph-name="template" unicode="&#xe809;" d="M104 696c0 15 13 28 28 28h258c15 0 28-13 28-28s-13-28-28-28h-258c-15 0-28 12-28 28z m891 47v-786c0-56-46-102-102-102h-786c-56 0-102 46-102 102v786c0 56 46 102 102 102h786c56 0 102-46 102-102z m-934 0v-141h878v141c0 25-21 46-46 46h-786c-25 0-46-21-46-46z m598-197h-598v-289h598v289z m-552-635h552v290h-598v-244c0-25 21-46 46-46z m832 46v589h-224v-635h178c25 0 46 21 46 46z" horiz-adv-x="1000" />

<glyph glyph-name="calendar" unicode="&#xe80a;" d="M788 681h-79v26c0 12-10 22-22 22s-21-10-21-22v-26h-332v26c0 12-10 22-22 22s-21-10-21-22v-26h-79c-50 0-91-41-91-92v-525c0-51 41-92 91-92h577c50 0 90 41 90 92v525c0 51-41 92-91 92z m-386-454v170h196v-170h-196z m196-43v-170h-196v170h196z m-434 213h196v-170h-196v170z m477 0h195v-170h-195v170z m-429 242h79v-65c0-12 10-22 22-22s21 10 21 22v65h332v-65c0-12 10-22 22-22s21 10 21 22v65h80c26 0 47-23 47-50v-148h-671v148c-1 27 21 50 47 50z m-48-575v120h196v-170h-148c-26 0-48 23-48 50z m624-50h-147v170h195v-120c0-27-22-50-48-50z" horiz-adv-x="1000" />

<glyph glyph-name="key-2" unicode="&#xe80b;" d="M839-9c32 36 21 75 16 110-1 6-24 14-36 14-32-2-49 7-43 42 6 32-6 44-37 49-14 2-32 20-35 34-7 38-22 55-63 49-42-6-55 10-51 52 1 12 3 32-3 37-42 27-27 63-22 101 13 92-39 180-122 218-83 37-178 18-241-49-64-68-76-165-30-248 44-78 134-123 223-102 35 8 54-2 76-26 88-92 177-184 267-274 16-16 41-22 62-32 3 5 6 10 9 15-92 94-184 188-275 284-13 14-21 34-32 51 5 3 9 6 14 9 106-111 213-221 323-334z m-501 535c-19-22-52-25-74-6-22 19-25 52-6 74 19 22 52 25 74 6 21-18 24-51 6-74z" horiz-adv-x="1000" />

<glyph glyph-name="settings" unicode="&#xe80c;" d="M741 698c-27-29-54-57-81-85-8-9-11-16-8-28 5-21 8-42 11-63 1-10 6-14 16-16 20-3 41-6 61-11 13-3 22 1 31 10 26 27 53 54 81 82 23-22 33-48 31-78-7-98-124-180-219-154-6 2-13 4-19 7-24 10-29 9-47-10-99-105-199-211-298-317-10-11-21-22-31-33-33-34-81-36-113-4-32 32-31 81 4 114 115 109 231 218 346 327 21 20 22 24 12 51-37 102 39 224 146 235 32 3 57-9 77-27z m-502-643c0 15-11 27-26 27-15 0-27-11-27-26 0-15 11-27 26-27 15 0 27 12 27 26z" horiz-adv-x="1000" />

<glyph glyph-name="pencil" unicode="&#xe80d;" d="M121-13c19 53 37 106 58 159 6 16 16 33 28 46 165 166 331 332 496 497 10 10 21 19 32 28 13 8 17 14 35 0 25-25 63-60 87-86 24-25 12-38-12-62-172-174-345-347-519-519-8-8-19-12-30-16-58-20-117-39-175-59 0 4 0 8 0 12z m492 577c33-34 64-66 93-97 17 18 35 36 50 51-30 30-62 62-94 95-16-15-33-33-49-49z m-416-435c-9-27-20-51-24-77-1-7 17-26 23-25 26 5 50 15 74 23-25 27-47 51-73 79z" horiz-adv-x="1000" />

<glyph glyph-name="company" unicode="&#xe80e;" d="M362 128c-24 10-48 19-71 30-36 18-69 42-92 76-26 38-32 78-15 122 1 2 1 4 2 6-17 5-33 9-50 13-6 2-9 4-9 11 1 32 0 64 2 96 3 38 37 78 74 87 2 1 6-1 8-3 33-25 67-28 103-8 2 1 5 3 7 5 7 8 15 7 23 3 27-12 47-32 58-61 1-2 1-4 2-5 33 2 65 6 97 6 32 0 64-4 95-6 9 13 17 27 27 40 11 14 26 23 43 28 3 1 8 0 10-2 34-28 82-28 116 0 2 2 7 3 10 2 44-15 72-54 73-102 0-27 0-53 0-80 0-5-2-7-6-9-15-5-30-10-44-15-2-1-5-1-5-1 3-18 7-35 7-52 1-33-13-62-34-87-33-39-76-63-123-81-12-5-25-8-37-13 9-38 4-76 5-114 0-6-2-9-7-11-32-14-66-20-101-23-58-4-114 6-169 23-3 1-7 2-7 7 1 33 1 66 2 99 2 7 5 13 6 19z m48 348c0-3 0-5 0-7 0-27 0-54 0-81 0-7-2-10-8-12-33-14-67-21-103-22-28-1-56 2-84 4-4 0-7 0-9-5-8-19-11-38-8-58 4-28 18-51 38-71 37-37 84-58 134-72 2-1 6 2 8 4 12 17 28 29 47 37 8 3 13 3 21-3 30-24 77-25 107 0 7 6 13 6 21 3 22-9 39-24 52-46 24 9 49 17 72 28 34 15 64 36 86 67 24 33 31 68 15 106-2 6-5 7-11 6-65-7-127 2-189 21-5 1-5 4-5 8 0 13 0 25 0 38 0 18 0 36 0 54-62 12-123 12-184 1z m-141 254c46-1 83-39 82-85-1-46-39-84-85-83-45 1-82 40-81 85 1 46 39 83 84 83z m467 0c46-1 83-40 82-85-1-47-39-84-85-83-45 1-82 40-81 85 1 46 39 83 84 83z m-238-374c45 0 83-39 83-84 0-46-38-84-83-84-45 0-83 39-83 84 0 47 38 85 83 84z" horiz-adv-x="1000" />

<glyph glyph-name="bulk-invitee" unicode="&#xe80f;" d="M863 214c5 7 7 15 8 23 2 13 0 27-6 44-22 61-114 119-160 140-14 7-16 12-16 12-1 2 1 8 11 25 3 5 9 11 15 18 4 5 8 9 12 15 32 38 43 121 9 176-23 37-67 61-114 61h-11c-46 0-90-24-114-61-34-55-23-138 9-176 5-6 9-10 13-15 6-7 11-13 14-18 11-17 13-23 12-25 0 0-2-5-17-12-5-2-10-5-16-8-3 17-9 32-18 46-23 37-67 62-114 62h-10c-47 0-91-25-115-62-34-55-23-138 9-176 5-5 9-10 13-14 6-8 11-14 14-18 11-17 13-24 12-26 0 0-2-4-17-12-45-22-137-79-160-140-13-35-5-58 5-70 22-31 67-30 74-30h337c1 0 2 0 3 0 12 0 48 2 68 25 27-17 58-26 91-26 95 0 172 77 172 172 3 25-3 48-13 70z m-315 168c22 10 34 23 39 39 6 22-6 42-17 60-5 8-11 15-19 24-3 4-7 8-11 14-20 23-30 86-6 126 16 25 47 41 78 41h10c32 0 63-16 78-41 25-40 14-103-5-126-4-6-8-10-12-14-8-9-14-16-19-24-11-17-23-38-16-60 4-16 17-29 39-39 43-21 116-69 136-112-31 28-72 45-117 45-86 0-157-63-170-146-26 19-53 34-72 43-15 8-17 12-17 12 0 3 1 9 12 26 2 4 8 11 14 18 4 4 8 9 13 14 16 19 26 49 29 82 14 9 26 15 33 18z m-2-367c-1 0-1 0-1 0h-338c-1 0-1 0-1 0-10-1-32 2-39 12-6 8-3 21 1 30 16 45 93 95 138 117 22 10 35 23 39 39 6 22-5 42-17 60-5 8-11 15-18 24-4 4-8 8-12 14-20 23-30 86-6 126 16 25 47 41 78 41h11c31 0 62-17 77-41 25-40 14-103-5-126-4-6-8-10-12-14-8-9-14-16-19-24-11-17-22-38-16-60 4-16 17-29 39-39 24-12 61-33 91-59 6-35 22-66 45-90-8-8-26-10-35-10z m161-1c-72 0-129 58-129 129s58 129 129 129 129-58 129-129-58-129-129-129z m88 129c0-12-9-21-21-21h-46v-46c0-12-10-22-22-22s-21 10-21 22v46h-46c-12 0-22 9-22 21s10 22 22 22h46v46c0 12 9 21 21 21s22-9 22-21v-46h46c12 0 21-10 21-22z" horiz-adv-x="1000" />

<glyph glyph-name="connect_outline-1" unicode="&#xe810;" d="M472 5c-116 0-231 0-347 0 1 8 1 16 2 24 5 39 19 73 43 103 14 17 30 31 48 42 2 1 3 1 4 0 22-20 47-30 76-30 29 0 54 10 76 29 2 2 4 2 6 1 49-30 78-76 88-134 2-9 2-19 3-29 2-2 1-4 1-6z m-172 369c53 0 96-45 96-102 0-57-43-103-97-103-52 0-94 46-95 101-1 57 42 104 96 104z m576-16c-116 0-231 0-347 0 1 8 1 16 2 24 5 39 19 73 43 103 14 17 30 31 48 42 2 1 3 1 4 0 22-20 47-30 76-30 29 0 54 10 76 29 2 2 4 2 6 1 49-30 78-76 88-134 2-9 2-19 3-29 1-2 1-4 1-6z m-173 369c53 0 96-45 96-102 0-57-43-103-97-103-52 0-94 46-95 101-1 57 42 104 96 104z m-221-53c-7 9-13 16-19 23-3 3-4 8-1 12 4 4 7 2 11-1 13-11 24-24 35-38 5-6 3-11-1-16-11-12-22-24-33-35-3-4-8-6-12-2-5 5-1 10 2 14 5 6 12 11 16 22-21 1-41-4-59-11-103-36-170-109-200-219-1-4-2-7-3-11-2-6-5-10-11-8-6 2-5 8-4 12 5 23 11 45 21 66 48 101 124 163 229 185 9 3 18 5 29 7z m108-666c7-10 17-12 24-18 4-3 8-6 5-12-3-6-8-4-12-2-14 8-29 15-43 23-8 4-8 11-5 19 7 14 14 28 21 42 2 5 6 9 11 5 5-3 3-8 2-13-2-8-14-17-7-24 6-6 17 2 26 6 104 43 167 123 190 240 1 7 1 17 11 15 10-2 5-12 4-18-24-127-95-212-208-256-6-3-11-5-19-7z" horiz-adv-x="1000" />

<glyph glyph-name="building" unicode="&#xe811;" d="M739 16c0 235 0 469 0 703h-465c0-234 0-468 0-703-16 0-6 0-22 0 0-16 0-31 0-47 62 0 99 0 161 0 62 0 125 0 187 0 62 0 99 0 161 0 0 16 0 31 0 47-15 0-6 0-22 0z m-407 631c23 0 46 0 69 0 0-19 0-37 0-56-23 0-46 0-69 0 0 19 0 38 0 56z m69-85c0-19 0-37 0-56-23 0-46 0-69 0 0 19 0 37 0 56 22 0 45 0 69 0z m-70-171c23 0 46 0 69 0 0-19 0-37 0-56-23 0-46 0-69 0 0 19 0 37 0 56z m70-85c0-19 0-37 0-56-23 0-46 0-69 0 0 19 0 37 0 56 22 0 45 0 69 0z m0-227c-23 0-46 0-69 0 0 19 0 37 0 56 23 0 46 0 69 0 0-19 0-37 0-56z m0 85c-23 0-46 0-69 0 0 18 0 37 0 56 23 0 46 0 69 0 0-19 0-37 0-56z m0 257c-23 0-46 0-69 0 0 18 0 37 0 56 23 0 46 0 69 0 0-19 0-38 0-56z m140-201c0-19 0-37 0-56-23 0-46 0-69 0 0 18 0 37 0 56 23 0 46 0 69 0z m-69 30c0 19 0 37 0 56 23 0 46 0 69 0 0-19 0-37 0-56-23 0-46 0-69 0z m69 226c0-19 0-37 0-56-23 0-46 0-69 0 0 18 0 37 0 56 23 0 46 0 69 0z m-69 30c0 19 0 37 0 56 23 0 46 0 69 0 0-19 0-37 0-56-23 0-46 0-69 0z m0 141c23 0 46 0 69 0 0-19 0-37 0-56-23 0-46 0-69 0 0 19 0 38 0 56z m0-256c23 0 46 0 69 0 0-19 0-37 0-56-23 0-46 0-69 0 0 19 0 37 0 56z m105-399c-46 0-93 0-140 0 0 31 0 61 0 93 47 0 93 0 140 0 0-31 0-62 0-93z m36 655c23 0 46 0 69 0 0-19 0-37 0-56-23 0-46 0-69 0 0 19 0 38 0 56z m69-85c0-19 0-37 0-56-23 0-46 0-69 0 0 19 0 37 0 56 23 0 46 0 69 0z m-69-171c23 0 46 0 69 0 0-19 0-37 0-56-23 0-46 0-69 0 0 19 0 37 0 56z m69-85c0-19 0-37 0-56-23 0-46 0-69 0 0 19 0 37 0 56 23 0 46 0 69 0z m0-227c-23 0-46 0-69 0 0 19 0 37 0 56 23 0 46 0 69 0 0-19 0-37 0-56z m0 85c-23 0-46 0-69 0 0 18 0 37 0 56 23 0 46 0 69 0 0-19 0-37 0-56z m0 257c-23 0-46 0-69 0 0 18 0 37 0 56 23 0 46 0 69 0 0-19 0-38 0-56z" horiz-adv-x="1000" />

<glyph glyph-name="man-clock" unicode="&#xe812;" d="M987 473c-70 244-358 341-568 190-13-8-33-13-48-10-100 18-198-44-208-137-8-79 16-149 73-206 64-66 155-61 213 12 53 66 71 140 54 222-1 4 1 8 4 10 38 30 72 41 123 43 116 5 221-83 229-192 10-121-73-227-189-242-12-1-26 4-36 10-51 30-100 61-151 93-6 3-12 1-15-4-22-44-42-81-62-121-4-8-16-7-19 1-9 23-17 42-25 64-1 4-5 7-10 7h-33c-4 0-8-3-10-7-8-23-17-45-27-70-3-8-15-8-19 0-21 42-41 81-60 119-2 5-8 7-13 5-194-81-198-115-186-284 0-6 5-10 10-10 215 0 430-1 648-1 6 0 11 4 11 10 0 6 0 13 0 15 0 0 0 0 0 0-1 27 5 37 35 41 201 32 335 246 279 442z m-62-177c-33-109-141-200-243-204-4-1-9 2-10 7-3 9-5 18-8 28-2 5 2 11 8 13 111 24 188 87 208 203 16 98-22 180-105 237-70 46-172 62-276-1-5-3-10-2-14 2-6 8-13 16-19 23-3 5-3 12 2 15 96 72 233 74 339 4 107-72 155-205 118-327z m-253 29h-114c-5 0-10 5-10 10v11c0 5 5 10 10 10h78c5 0 10 5 10 10v114c0 5 5 10 10 10h16c5 0 10-5 10-10v-145c0-5-5-10-10-10l0 0 0 0z" horiz-adv-x="1000" />

<glyph glyph-name="survey" unicode="&#xe813;" d="M213-150c-29 0-48 6-61 20-17 17-19 43-18 66 2 87 2 175 1 261 0 35 0 69 0 104l0 91c0 90 0 183 0 275 1 15 1 60 40 74 17 6 58 8 71 5 15-3 23-21 23-33-2-32-24-34-28-34l-4 1c-2 0-4 0-7 0-10 0-14-3-17-5-11-11-11-42-11-66 0-48 0-96 1-143 0-169 0-343-2-514 0-15 2-25 7-30 4-4 13-6 28-6l523 0c15 0 25 2 29 7 4 4 7 14 7 30-2 234-1 468-1 685 0 14 0 34-5 40-3 3-9 3-14 3-2 0-5 0-7 0-4-1-7-1-10-1-11 0-30 5-33 35-1 12 3 20 7 24 9 11 24 13 34 14 13 1 23 2 31 2 68 0 68-38 68-105v-2c0-64 0-128 0-192-1-171-1-348 1-522 0-31-5-51-19-64-17-17-41-19-63-19l-571-1z m271 733c-41 0-94 0-116 1-51 2-81 31-84 81-5 58 24 96 77 101 28 4 35 8 40 29 11 37 42 56 92 56 30 0 81 0 99-51 9-25 18-32 43-34 50-4 83-44 80-96s-37-86-89-86c-25-1-86-1-142-1z m-115 115c-5-1-8-3-11-6-4-4-6-11-6-19 0-6 1-21 28-22 110-2 111-2 227-1 33 1 35 11 35 24 0 12-3 26-29 26-1 0-3 0-4 0-64-5-75 36-78 66-2 13-18 16-31 16h-2c-31-1-32-10-33-16-6-63-51-67-77-67-2 0-8 0-8 0s-8 0-11-1z m328-262h-69v-362h69v362z m-113-215h-69v-147h69v147z m-212-37h-70v-110h70v110z m104 148h-69v-258h69v258z" horiz-adv-x="1000" />

<glyph glyph-name="graph" unicode="&#xe814;" d="M215 219v-317h-123v157l123 160z m103-317h124v351l-124 112 0-463 0 0z m227 337v-337h123v448l-123-111z m226-337h124v618l-124-111v-507z m-49 870l82-82 1-1-303-243-177 165-325-396 87-88 238 309 177-165 390 331 81-82 27 278-278-26z" horiz-adv-x="1000" />

<glyph glyph-name="info-squared" unicode="&#xe815;" d="M880 600c0 66-54 120-120 120h-510c-66 0-120-54-120-120v-510c0-66 54-120 120-120h510c66 0 120 54 120 120v510z m-375-520l0 0c-19 0-35 16-35 35v310c0 19 16 35 35 35h0c19 0 35-16 35-35v-310c0-19-16-35-35-35z m-5 454c-25 0-43 19-43 43 0 25 18 44 44 44 26 0 43-19 43-44 2-24-16-43-44-43z" horiz-adv-x="1000" />

<glyph glyph-name="location" unicode="&#xe816;" d="M501-152c-48 63-94 120-137 180-74 104-141 212-183 334-41 117-37 230 34 335 82 120 227 175 368 142 136-33 242-149 262-290 9-70-5-138-30-204-48-129-122-244-203-354-35-47-72-92-111-143z m147 653c0 82-66 148-147 148-81 0-146-66-146-147 0-82 65-148 146-148 81 0 147 66 147 147z" horiz-adv-x="1000" />

<glyph glyph-name="home" unicode="&#xe817;" d="M390-134c-77 0-153 0-230 0-3 9-10 18-10 27 0 140 0 281 0 422 0 8 5 18 11 23 107 95 214 190 321 284 6 6 13 11 20 16 115-101 229-202 342-302 5-5 8-16 9-25 0-138 0-277 0-415 0-10-6-20-9-31-78 0-156 0-234 0 1 65 1 129 2 193 0 18-14 21-29 21-55 0-109 0-164 0-24 0-29-6-29-30 0-61 0-122 0-183z m108 968c-79-70-158-140-237-211-82-72-164-144-245-216-5-4-11-6-16-10 0-1 0-3 0-4 17-19 35-38 53-58 150 133 299 264 448 396 150-133 299-264 445-393 19 18 36 34 54 51 0 3 0 5 0 8-4 3-8 6-12 9-142 126-285 251-427 377-19 17-36 34-54 51-3 0-6 0-9 0z m-230-118c3 3 6 7 6 11 0 22 0 44 0 67-41 0-82 0-123 0 0-61 0-120 0-184 41 38 79 72 117 106z" horiz-adv-x="1000" />

<glyph glyph-name="settings-1" unicode="&#xe818;" d="M499 348h0 0z m480 277c-3 9-10 16-20 19-9 2-19-1-26-8l-180-180c-6-6-17-6-23 0l-124 124c-6 6-6 16 0 23l180 180c7 7 10 17 8 26-3 10-10 17-19 20-114 37-238 8-323-77-70-71-103-168-90-267 1-6-1-11-5-14l-317-317c-47-47-47-124 0-172l93-92c22-22 53-35 85-35s63 13 86 35l317 317c3 4 8 6 14 5 99-13 196 20 267 90 85 85 114 209 77 323z m-117-283c-58-58-138-85-220-75-23 3-45-4-61-20l-317-317c-12-12-28-19-46-19s-34 7-46 19l-92 92c-25 26-25 67 0 92l317 317c16 16 23 38 20 61-10 82 17 162 75 220 50 50 116 77 184 77 12 0 23-1 35-2l-145-145c-28-28-28-74 0-102l124-124c14-13 32-21 51-21 20 0 38 8 51 21l145 145c10-80-16-161-75-219z m-661-319c-7 0-14 3-20 8-11 11-11 29 0 40l139 138c10 11 28 11 39 0 11-11 11-29 0-39l-138-139c-6-5-13-8-20-8z" horiz-adv-x="1000" />

<glyph glyph-name="group" unicode="&#xe819;" d="M736 101c-159 0-318 0-477 0 2 60 36 102 92 114 18 4 36 7 53 12 29 9 41 35 29 61-12 28-32 54-36 83-7 51-12 104-4 154 8 51 66 76 127 68 51-7 87-47 88-98 1-71-7-141-45-204-16-27-3-55 28-64 17-5 36-8 53-12 56-12 90-54 92-114z m137 81c-42 0-81 0-120 0-7 0-16 3-22 7-29 21-57 42-86 64 4 1 15 4 24 10 7 5 12 13 18 20-7 5-13 11-20 14-11 5-23 7-29 9 3 42 7 79 8 117 2 59 28 88 81 89 55 1 82-29 84-89 1-37 4-74 6-116-10-3-27-7-45-12-11-28 10-33 29-37 39-9 67-28 72-76z m-522 71c-30-23-59-45-89-68-4-3-11-4-16-4-40 0-80 0-123 0 3 33 17 56 47 67 13 5 27 6 39 12 8 4 12 13 18 20-7 6-13 13-20 16-10 4-21 6-27 7 2 42 5 80 6 118 2 59 29 89 81 89 55 0 82-29 84-90 1-37 5-74 8-116-6-2-18-4-29-9-7-3-13-9-20-14 6-7 11-15 18-20 8-4 19-6 23-8z" horiz-adv-x="1000" />

<glyph glyph-name="user" unicode="&#xe81a;" d="M500 348c-105 0-190 85-190 190 0 105 85 191 190 191 105 0 191-86 191-191 0-105-86-190-191-190z m0 338c-81 0-148-66-148-148 0-81 67-147 148-147s148 66 148 147c0 82-67 148-148 148z m379-693v138c0 90-74 163-164 163h-430c-90 0-164-73-164-163v-138c0-12 10-22 22-22s21 10 21 22v138c0 67 55 120 121 120h430c67 0 121-54 121-120v-138c0-12 9-22 21-22s22 10 22 22z" horiz-adv-x="1000" />

<glyph glyph-name="phone-2" unicode="&#xe81b;" d="M0 615q0 50 28 76l138 138q45 37 77-13l113-211q18-39-14-71l-51-52q-5-6-5-14 25-98 132-195l31-30t36-34 34-26 41-25 40-14q20-6 27 2l61 60q39 30 72 12l203-121q22-14 25-37t-13-39l-141-139q-27-27-74-27-140 4-318 121-258 185-375 406-72 151-67 233z" horiz-adv-x="988" />

<glyph glyph-name="at" unicode="&#xe81c;" d="M770 548c16-41 25-87 25-138 0-68-17-133-46-182-39-61-94-92-163-92-27 0-52 7-70 21-12 9-23 21-30 36-26-33-68-55-113-55-52 0-95 19-123 58-27 35-41 84-41 141s16 110 49 148c33 41 82 63 141 63 35 0 67-15 90-37l7 26 85 0-17-259c-1-21 1-36 9-43 3-5 10-8 20-8 76 0 102 123 102 183 0 72-24 132-67 176-50 51-122 76-209 76-84 0-158-26-214-76-65-59-101-143-101-245 0-86 31-165 85-221 52-53 122-82 205-82 95 0 167 14 241 47l15 7 0-96-6-3c-69-34-150-50-251-50-108 0-200 33-269 97-81 73-124 183-124 308 0 119 40 220 116 294 38 36 83 65 133 84 52 21 109 31 169 31 113 0 215-37 283-106 30-29 54-64 69-103z m-384-317c30 0 54 14 69 40 14 25 18 61 18 85 0 31-7 56-17 74-13 20-33 28-60 28-28 0-50-12-63-38-13-22-19-53-19-83 0-32 7-106 72-106z" horiz-adv-x="795" />

<glyph glyph-name="clock" unicode="&#xe81d;" d="M460 810q190 0 325-135t135-325-135-325-325-135-325 135-135 325 135 325 325 135z m0-820q150 0 255 106t105 254q0 150-105 255t-255 105q-148 0-254-105t-106-255q0-148 106-254t254-106z m36 620l0-244 150-150-50-50-170 170 0 274 70 0z" horiz-adv-x="920" />

<glyph glyph-name="module" unicode="&#xe81e;" d="M977 333c-70 30-141 59-212 88-12 4-15 10-15 22 0 91 0 181 0 272 0 15-5 23-20 29-70 29-141 59-211 90-14 6-24 6-37 0-71-30-141-61-212-90-15-6-20-15-20-31 0-90 0-180 1-269 0-12-3-19-15-23-72-29-229-97-236-101 0-115 0-229 0-344 8-5 181-81 260-112 7-3 18-3 25 0 67 30 133 60 199 91 11 5 19 5 31 0 66-31 133-61 200-91 8-3 18-3 26-1 78 32 156 65 233 98 21 11 26 14 26 19 0 112 0 224 0 336-10 8-14 14-23 17z m-698-98c-5-2-12-2-18 0-60 25-120 50-184 76 57 24 111 44 164 68 21 9 38 9 58-1 48-24 97-44 147-67-57-26-112-52-167-76z m182-246c-56-24-110-49-168-75 0 92 0 181 0 270 0 4 3 11 7 12 58 27 116 53 176 81 0-8 1-13 1-18 0-81 0-162 0-243 0-14-4-21-16-27z m48 662c-6-3-15-2-21 0-53 23-106 46-163 71 59 25 114 48 169 71 4 2 9 1 13 0 54-23 107-46 161-69 1 0 2-2 3-4-54-23-108-47-162-69z m11-303c0 43 0 208 1 246 0 6 3 16 8 17 58 26 117 51 179 78 0-87 0-169-1-252 0-4-3-11-7-13-58-26-116-52-174-77-1 0-3 0-6 1z m200-113c-55 24-110 49-168 76 60 26 115 51 171 75 4 2 10 2 14 0 60-24 120-48 184-75-18-7-32-13-46-19-45-19-89-37-133-55-7-3-16-4-22-2z m221-244c-58-23-184-75-191-78 0 34-1 210 0 265 0 6 5 17 11 19 63 27 126 53 190 79 1 1 2 0 5 0 0-4 1-177 1-261 0-13-4-19-16-24z" horiz-adv-x="1000" />

<glyph glyph-name="gate-open" unicode="&#xe81f;" d="M550 849v-997h449v997h-449z m359-523c-31-32-62-63-93-93-12-12-27-15-40-9-21 10-26 38-9 55 12 12 24 24 36 35 0 1 0 1 0 2-3 0-5 0-7 0-43 0-86 0-129 0-12 0-22 4-30 13-8 11-9 23-4 35 5 11 14 18 27 19 3 1 6 1 9 1 42 0 85 0 127 0 2 0 4 0 7 0 0 1 0 1 1 2-9 8-17 15-25 23-5 6-11 11-15 16-11 14-9 34 3 45 14 12 33 13 45 1 18-17 36-35 53-52 15-15 30-29 44-44 14-15 14-35 0-49z m-910 523v-997h450v997h-450z m367-513c-5-11-15-18-27-19-3-1-6-1-9-1-43 0-85 0-127 0-3 0-5 0-7 0 0 0-1-1-1-1 8-8 17-16 25-24 5-5 10-11 15-16 10-14 9-33-3-44-14-13-33-14-46-2-18 17-35 35-52 52-15 15-30 30-44 45-15 14-15 35-1 49 31 31 62 62 93 93 12 12 27 14 40 8 22-10 26-38 9-55-12-12-24-23-36-35 0-1 1-1 1-2 2 0 4 0 6 0 44 0 87 0 130 0 12 0 22-3 29-13 9-11 10-22 5-35z" horiz-adv-x="1000" />

<glyph glyph-name="plus-1" unicode="&#xe820;" d="M911 462l0-223-335 0 0-336-223 0 0 336-335 0 0 223 335 0 0 335 223 0 0-335 335 0z" horiz-adv-x="928" />

<glyph glyph-name="visitor" unicode="&#xe821;" d="M897-51h-794c-54 0-98 44-98 98v606c0 54 44 98 98 98h794c54 0 98-44 98-98v-606c0-54-44-98-98-98z m-794 746c-23 0-42-19-42-42v-606c0-23 19-42 42-42h794c23 0 42 19 42 42v606c0 23-19 42-42 42h-794v0z m280-341c15 17 24 40 24 64 0 56-46 101-101 101s-101-45-101-101c0-24 8-47 23-64-52-28-87-83-87-145 0-16 13-28 28-28s28 12 28 28c0 59 49 108 109 108h0 0c59 0 108-48 108-108 0-16 12-28 28-28s28 12 28 28c0 62-35 117-87 145z m-122 64c0 25 20 45 45 45 24 0 45-20 45-45 0-25-21-45-45-45-25 0-45 20-45 45z m598-6c0 16-13 28-28 28h-266c-16 0-28-12-28-28s12-28 28-28h266c15 0 28 13 28 28z m0-124c0 15-13 28-28 28h-266c-16 0-28-13-28-28 0-16 12-28 28-28h266c15 0 28 12 28 28z" horiz-adv-x="1000" />

<glyph glyph-name="stopwatch" unicode="&#xe822;" d="M500 723c231 1 437-184 436-438 0-257-210-434-434-435-228-2-439 178-439 436 0 259 211 439 437 437z m-367-436c0-203 164-367 367-367 198-1 363 164 366 359 3 206-163 374-366 374-202 1-366-164-367-366z m349 561c0-25 0-49 0-74-21-4-44-7-56 14-6 11-7 30-2 42 10 25 35 20 58 18z m35 0c23 2 46 6 57-17 6-11 6-30 0-41-11-23-34-19-57-17 0 25 0 49 0 75z m-64-115c0 7 0 13 0 21 31 0 61 0 94 0 0-7 0-14 1-21-33 0-64 0-95 0z m49-120c113 5 239-66 296-190 56-120 28-272-53-352-46 40-91 80-137 120-32 29-65 58-97 87-5 5-11 14-11 21 0 102 0 204 0 307 0 2 1 5 2 7z" horiz-adv-x="1000" />

<glyph glyph-name="iot" unicode="&#xe823;" d="M507 532c85 0 154-70 155-156 0-85-70-157-155-157-84-1-154 70-155 156 0 86 69 157 155 157z m-203-201c-41-14-80-27-119-41-13-5-22-4-32 8-28 31-75 35-110 14-36-22-52-68-38-109 14-39 52-64 93-60 43 5 77 36 80 79 2 15 8 20 21 25 40 12 79 27 120 41-5 15-10 28-15 43z m228-171c7-29 12-57 20-86 3-13 1-20-10-28-35-28-44-74-25-112 19-38 60-57 100-48 41 9 70 46 70 89 0 43-27 79-70 88-15 3-19 10-22 23-6 30-13 60-20 91-15-4-28-7-42-10 0-4-1-6-1-7z m263 164c18-1 27-7 34-25 14-40 55-60 97-54 39 6 70 41 74 81 3 45-21 83-63 96-39 13-81-2-101-38-9-16-18-17-33-15-29 3-58 6-88 9-2-16-3-30-5-46 30-3 58-7 85-8z m-120 293c8 16 17 22 36 21 42-4 78 25 89 65 11 38-7 82-43 101-39 22-84 15-113-17-28-30-32-74-7-108 11-14 8-23 0-36-15-25-29-50-45-77 14-8 26-15 40-23 15 26 30 50 43 74z m-349-36c-9 8-13 15-8 28 15 42-2 86-39 108-37 21-82 14-110-16-30-32-33-80-9-115 24-36 67-49 107-32 13 5 19 2 28-6 15-16 31-30 47-46 11 12 20 22 31 34-16 16-31 30-47 45z" horiz-adv-x="1000" />

<glyph glyph-name="assigned-gate" unicode="&#xe824;" d="M970-150c-86 0-171 0-256 0-12 6-15 16-15 28 1 37 0 74 0 111 0 3 0 6 0 9-133 0-265 0-398 0 0-3 0-6 0-9 0-37-1-74 0-111 0-12-3-22-15-28-85 0-170 0-256 0-11 5-15 14-15 26 0 316 0 632 0 948 0 12 4 21 15 26 86 0 171 0 256 0 12-6 15-16 15-28-1-30 0-60 0-90-1-6 2-8 8-8 127 0 255 0 382 0 6 0 9 2 8 8 0 30 1 60 0 90 0 12 3 22 15 28 85 0 171 0 256 0 11-5 15-14 15-26 0-42 0-85 0-127 0-273 0-547 0-820 0-13-4-22-15-27z m-669 512c0-104 0-208 0-312 0-8 2-10 10-10 126 0 252 0 377 0 11 0 11 0 11 11 0 207 0 414 0 622 0 10 0 10-10 10-126 0-252 0-377 0-11 0-11 0-11-10 0-104 0-207 0-311z m-41-471c0 306 0 612 0 918-68 0-136 0-204 0 0-306 0-612 0-918 68 0 136 0 204 0z m684 0c0 306 0 612 0 918-68 0-136 0-204 0 0-306 0-612 0-918 68 0 136 0 204 0z m-54 91h-94v744h94v-744z m-80 13h66v718h-66v-718z m-606-13h-93v744h93v-744z m-80 13h67v718h-67v-718z" horiz-adv-x="1000" />

<glyph glyph-name="arrow-down" unicode="&#xe825;" d="M498 5l-498 633 110 55 386-283 398 285 106-49-502-641z" horiz-adv-x="1000" />

<glyph glyph-name="new-this-month" unicode="&#xe826;" d="M566 839c117 0 212-95 212-212 0-116-95-211-212-211-116 0-211 95-211 211 0 117 95 212 211 212z m-61-899c0 0 293 0 355 0 112 0 157 106 135 177-75 240-274 301-274 301s-64-56-163-56c-75 0-154 56-154 56s-14-5-35-15c0 0 146-74 177-189 45-165-41-274-41-274z m-246 430c-141 0-256-114-256-256s115-255 256-255c141 0 255 114 255 255s-114 256-255 256z m158-289l-129 0 0-115c0-15-12-27-28-27-15 0-27 12-27 27l0 115-132 0c-15 0-28 12-28 27l0 3c0 15 13 27 28 27l132 0 0 125c0 15 12 27 27 27 16 0 28-12 28-27l0-125 129 0c15 0 27-12 27-27l0-3c0-15-12-27-27-27z" horiz-adv-x="1000" />

<glyph glyph-name="shift-not-assign" unicode="&#xe827;" d="M570 842c115 0 209-94 209-210 0-116-94-210-209-210-116 0-210 94-210 210 0 116 94 210 210 210z m-62-892c0 0 291 0 353 0 111 0 155 105 134 175-75 239-272 300-272 300s-64-56-162-56c-75 0-152 56-152 56s-14-5-35-16c0 0 144-73 175-187 45-163-41-272-41-272z m-255 439v-272h-253c0-138 118-259 263-259 145 0 258 120 258 265 0 145-116 266-268 266z m-29-3c0 0 0 0 0 0-119-15-211-113-223-241h223v241z" horiz-adv-x="1000" />

<glyph glyph-name="on-time" unicode="&#xe828;" d="M566 839c117 0 212-95 212-212 0-116-95-211-212-211-116 0-211 95-211 211 0 117 95 212 211 212z m-61-899c0 0 293 0 355 0 112 0 157 106 135 177-75 240-274 301-274 301s-64-56-163-56c-75 0-154 56-154 56s-14-5-35-15c0 0 146-74 177-189 45-165-41-274-41-274z m-249 432c-142 0-256-114-256-255 0-141 114-256 256-256 141 0 255 115 255 256 0 141-114 255-255 255z m29-256v-54h-50-121c-7 0-11 3-11 11l0 30c0 7 4 11 11 11h119v122c0 8 8 8 15 8h22c7 0 15 0 15-8v-120z" horiz-adv-x="1000" />

<glyph glyph-name="payment" unicode="&#xe829;" d="M432 682h141c14 0 26 9 30 23 4 13 11 32 23 50 15 25 19 68-33 50-26-9-67-4-86 9-22 14-33 34-80 36-28 2-53-10-71-21-16-9-20-29-10-44l61-89c5-9 15-14 25-14z m-17-19h169c7 0 14-3 20-7 4-4 8-9 9-15 0 0 0 0 0-1 1-17-13-31-30-31h-169c0 0-25 0-26 26-1 10 3 17 8 21 6 5 12 7 19 7z m446-712c-12 12-17 28-14 44 5 30 13 81 14 137 7 188-57 302-157 387-42 35-81 56-100 65-7 4-14 6-22 6h-168c-5 0-10-1-15-2-21-7-86-29-143-82-109-101-140-275-137-353 3-65 19-122 29-155 6-18 1-37-11-50-11-12-22-28-17-38 5-13 46-15 62-15 5 0 9-1 14-2 31-8 163-43 298-43 137 0 276 34 311 43 6 1 11 2 17 1 16-1 52-1 59 18 4 11-9 27-20 39z m-251 181c-9-64-69-78-73-80-7-4-11-7-11-11 0-3 0-29 0-32 0-3-2-13-11-13-9 0-26 0-30 0-4 0-15-1-15 11 0 11 0 21 0 26 0 5-1 13-11 13-4 0-19 2-34 7-19 5-39 12-35 27 5 22 9 38 11 41 1 3 5 10 15 4 10-6 71-31 102-13 14 9 21 24 15 37-7 14-27 26-39 30-7 2-41 14-65 32-22 17-35 34-37 65-5 73 64 93 69 94 11 3 14 7 13 13 0 6 0 26 0 26s-1 15 9 15c10 1 27 0 32 0 5 0 14-5 13-11 0-5 0-22 0-25 0-4 0-12 11-13 12-2 64-10 59-28-6-19-10-34-11-39-2-5-8-13-18-6-9 6-82 28-97 2-10-17-3-31 17-43 18-11 43-18 63-28 22-11 67-44 58-101z" horiz-adv-x="1000" />

<glyph glyph-name="on-leave" unicode="&#xe82a;" d="M597 807c108 0 196-88 196-196s-88-196-196-196-196 88-196 196 88 196 196 196z m397-668c-69 223-254 279-254 279s-59-53-151-53c-70 0-143 52-143 52s-57-17-113-65c25 0 82 0 97 0 8 0 15 0 21 0 5 0 8 0 10 0 12 0 24-8 24-24 0-13 0-255 0-351 133 0 311 0 384 0 104 0 146 96 125 162z m-533 163c0 15-16 25-27 25-1 0-5 0-10 0-5 0-12 0-20 0-10 0-11 0-38 0v-44c0-10-9-18-21-18-11 0-20 8-20 18v44c-27 0-61 0-102 0s-61 0-88 0v-44c0-10-9-18-21-18-11 0-20 8-20 18v44c-27 0-41 0-51 0-8 0-15 0-20 0-5 0-9 0-11 0-11 0-13-10-13-25 0-5 0-42 0-83h461c1 41 1 78 1 83z m-462-110c0-109 0-273 0-279 0-9 0-20 14-20 10 0 116 0 211 0s200 0 210 0c20 0 27 11 27 20 0 6 0 170 0 279h-462z m315-109l-99-104c-9-9-16-6-21-1l-61 60c-5 4-5 12 0 17l13 13c5 5 12 5 16 0l41-40 82 85c4 4 12 4 16 0l13-13c5-5 5-13 0-17z" horiz-adv-x="1000" />

<glyph glyph-name="absent" unicode="&#xe82b;" d="M565 842c117 0 212-95 212-212 0-117-95-212-212-212-117 0-212 95-212 212 0 117 95 212 212 212z m-62-901c0 0 294 0 356 0 113 0 157 106 135 177-75 241-274 303-274 303s-64-57-163-57c-76 0-154 57-154 57s-14-6-35-16c0 0 145-74 177-189 45-165-42-275-42-275z m-247 429c-142 0-257-114-257-256 0-141 115-256 257-256 141 0 256 115 256 256 0 142-115 256-256 256z m134-390l-3-2c-10-11-27-10-38 0l-91 92-82-82c-11-11-28-11-39 0-11 11-11 28 0 39l81 82-93 93c-11 11-11 28 0 39l2 2c10 10 28 10 39-1l93-93 88 89c11 10 28 10 39-1 11-11 11-28 0-39l-88-88 91-91c11-11 11-28 1-39z" horiz-adv-x="1000" />

<glyph glyph-name="tardy" unicode="&#xe82c;" d="M627 772c100 0 181-81 181-180s-81-181-181-181-181 81-181 181 81 180 181 180z m-206-393c35 22 67 34 67 34s67-48 132-48c84 0 139 48 139 48s171-52 235-257c19-61-19-151-115-151-52 0-181 0-295 0 0 0-19 11-41 34-74 79-65 106-77 198-14 110-45 142-45 142z m108-395c0 0-91 0-197 0-14 0-2-56-75-56-53 1-57 54-63 56-106 0-195 0-195 0s-1 9 0 18c0 9 2 18 11 24 18 12 48 29 67 82 6 15 13 41 18 74 6 52 12 118 43 164 21 32 51 55 96 61 70 8 109-11 134-33 30-25 40-55 50-89 22-75 11-176 70-233 18-18 29-24 37-33 10-12 4-35 4-35z m-267 519c19 0 34-15 34-33s-15-34-34-34-34 15-34 34 16 33 34 33z" horiz-adv-x="1000" />

<glyph glyph-name="headcount" unicode="&#xe82d;" d="M1000 389c0 0-71-79-121-185-57-120-111-247-111-247s-43 29-102 59c-63 33-124 47-124 47l43 126c0 0 36 0 84-19 47-20 88-45 88-45s64 90 129 166c55 64 114 98 114 98z m-600-487c95 0 198 36 271 86-79 46-152 60-152 60l52 173c0 0 77-12 170-62 15 20 54 67 54 67-8 3-110 49-118 51-25 8-51 15-76 23-13 4-22 10-31 21-11 12-25 22-39 32-13 9-19 20-21 36-5 27 4 52 13 76 6 17 13 32 22 48 12 23 18 48 15 74 0 4-1 9-3 11-6 8-7 17-8 26-1 15-1 31-2 46-1 10-3 20-5 30-6 26-22 46-42 62-10 9-23 12-36 14-7 1-13 2-20 3-9 1-18 3-26 9-12 9-26 11-39 9-20-2-39-4-57-9-28-7-49-24-66-46-9-11-17-21-25-33-12-16-16-34-18-53-5-39-3-78 2-116 1-6 2-12 2-17 1-17 11-29 21-40 4-5 8-9 12-14 9-10 15-21 19-34 4-14 10-26 17-39 6-12 8-24 9-37 0-4-3-11-7-13-17-7-28-22-40-35-11-13-23-23-39-29-41-14-81-28-123-41-17-6-36-10-54-15-12-3-19-10-22-23-3-14-6-28-9-43-2-6 0-26 2-30 79-136 227-228 397-228z m19 368c24 21 48 42 72 63 7 7 16 12 23 19 4 4 8 3 12 0 3-4 7-7 11-10 2-3 3-6 5-9-3-23-6-46-10-68-1-5-4-9-7-13-13-18-26-35-39-52-3-5-7-6-12-2-18 19-37 38-56 57-6 6-5 9 1 15z m-13-67c8 9 16 17 25 24 1 1 6-1 8-2 11-10 23-21 34-30 8-7 8-7 15 1 11 14 23 29 34 44 1 2 3 3 5 5-9-76-26-151-43-225-1 0-2 0-3 0-2 3-3 6-4 9-22 51-43 101-64 151-2 5-6 9-7 14-1 3-2 8 0 9z m-42-24c-11-37-21-74-32-111 0-2-1-4-2-6-1 0-2 0-3 0-21 45-34 93-42 143 1 0 1 1 2 1 4-8 9-17 14-27 18 17 34 32 52 48 2-4 4-9 7-13 7-11 7-22 4-35z m-96 148c5 4 10 8 15 12 3 2 7 3 9 5 5 6 9 4 13 0 21-23 43-46 64-70 5-6 5-10 0-16-15-17-30-34-46-50-5-6-11-11-17-17-4-3-6-3-8 1-5 11-11 21-13 32-8 32-14 65-20 96 2 3 2 6 3 7z" horiz-adv-x="1000" />

<glyph glyph-name="present" unicode="&#xe82e;" d="M566 839c117 0 211-95 211-212 0-116-94-211-211-211-117 0-212 95-212 211 0 117 95 212 212 212z m-62-899c0 0 293 0 355 0 112 0 157 106 135 177-75 240-274 301-274 301s-64-56-163-56c-75 0-153 56-153 56s-14-5-36-15c0 0 146-74 177-189 45-165-41-274-41-274z m-249 432c-141 0-256-114-256-255 0-141 115-256 256-256 141 0 255 115 255 256 1 141-114 255-255 255z m162-188l-175-174c0 0-9-9-18-9-9 0-19 9-19 9l-102 101c0 0-9 17 3 30 13 15 32 5 32 5l80-78c0 0 3-4 7-4 3 0 6 4 6 4l151 151c0 0 15 11 33-4 14-13 2-31 2-31z" horiz-adv-x="1000" />

<glyph glyph-name="exclaim" unicode="&#xe82f;" d="M499-83c-133 0-266-1-399 0-19 0-39 2-58 8-34 10-49 40-39 74 5 16 12 31 20 45 134 226 267 452 401 677 49 84 102 83 152-1 133-223 265-447 397-670 10-17 19-35 25-54 9-32-7-61-39-70-18-6-37-9-56-9-135 0-269 0-404 0 0 0 0 0 0 0z m-64 449c0-45 0-89 1-134 0-26 12-38 37-39 18 0 37 0 55 0 23 1 36 13 36 36 1 91 1 183 0 274 0 22-13 33-35 34-17 0-35 0-52 0-31-1-41-11-41-43-1-42-1-85-1-128z m64-358c36-1 65 28 65 63 0 34-29 62-63 63-35 1-65-28-65-63-1-34 28-63 63-63z" horiz-adv-x="1000" />

<glyph glyph-name="unfix" unicode="&#xe830;" d="M101 282v560c0 4 3 8 7 8h884c5 0 8-4 8-8v-813c0-5-3-8-8-8h-576l80 109h395v601h-686v-364l-104-85z m614 226l-99-109-99 107 101 106-22 21-184-54v-189c0 0-376-401-393-419-4-5-19-27-19-50 0-25 10-36 19-48 37-45 88-10 90-9 4 4 392 422 392 422h183l50 201-19 21z m-647-623c-18 0-33 15-33 34 0 20 15 35 33 35 19 0 34-15 34-35 0-19-15-34-34-34z" horiz-adv-x="1000" />

<glyph glyph-name="cg" unicode="&#xe831;" d="M313 426v149h374v-149h-44v105h-286v-105h-44z m374-46h-374v-45h374v45z m-44-91v-99h-286v99h-44v-143h374v143h-44z m-143 561c-276 0-500-224-500-500 0-276 224-500 500-500s500 224 500 500c0 276-224 500-500 500z m0-956c-252 0-456 204-456 456 0 252 204 456 456 456s456-204 456-456c0-252-204-456-456-456z" horiz-adv-x="1000" />

<glyph glyph-name="zone" unicode="&#xe832;" d="M500 25c-38 48-73 92-106 138-58 81-109 165-142 259-32 91-29 179 26 260 63 93 176 136 285 110 106-25 188-115 203-224 8-55-3-107-22-158-38-101-95-189-158-275-27-36-56-71-86-110z m114 505c0 64-51 115-114 115-63 0-113-51-114-114 0-63 51-114 114-114 63 0 114 51 114 113z m233-357c-34 11-72 19-113 26-4 0-9-1-12-3l0 0c-10-8-6-25 7-27 149-24 242-69 242-111 0-60-194-128-471-128-277 0-470 68-470 128 0 42 92 87 241 111 13 2 18 19 7 27h0c-3 2-7 3-11 3-42-7-80-15-114-26-100-29-153-69-153-115 0-46 53-85 153-115 93-27 216-42 347-42s254 15 347 42c100 30 153 69 153 115 0 46-53 86-153 115z" horiz-adv-x="1000" />

<glyph glyph-name="cross" unicode="&#xe833;" d="M146-4c-195 195-195 513 0 708s513 195 708 0c195-195 195-513 0-708-195-195-513-195-708 0z m675 675c-177 177-465 177-642 0-177-177-177-465 0-642 177-178 465-178 642 0 177 177 177 465 0 642z m-472-558l-86 86 151 151-151 151 86 86 151-150 151 150 86-86-151-151 151-151-86-86-151 151-151-151z" horiz-adv-x="1000" />

<glyph glyph-name="matrix" unicode="&#xe834;" d="M499-150c-137 0-273 0-409 0-55 0-90 35-90 89 0 274 0 548 0 821 0 56 35 90 90 90 273 0 547 0 820 0 55 0 90-35 90-90 0-274 0-548 0-822 0-53-35-88-88-88-138 0-276 0-413 0z m-291 916c0 25-17 42-42 43-28 0-55 0-82 0-24-1-42-18-42-42-1-28-1-55 0-83 0-24 17-42 42-42 27 0 55-1 83 0 24 0 41 18 41 42 1 14 1 68 0 82z m251 1c-1 24-18 41-43 42-27 0-55 0-83 0-23-1-41-18-41-41-1-29-1-57 0-85 0-23 18-41 41-41 28-1 56 0 83 0 25 0 42 18 43 42 0 13 0 69 0 83z m458-125c24 0 41 18 42 42 0 28 0 55 0 83-1 23-18 41-41 42-29 0-57 0-85 0-23-1-41-18-41-42-1-28-1-55 0-83 0-24 18-42 42-42 13-1 69-1 83 0z m-626-207c1-26 18-43 44-43 27-1 54-1 81 0 25 0 42 17 43 42 0 27 0 55 0 82-1 25-18 42-43 42-28 1-55 1-82 0-24 0-42-17-42-41-1-14-1-68-1-82z m418 81c-1 25-18 42-42 43-28 0-57 0-85 0-22-1-40-19-40-41-1-28-1-57 0-85 0-24 18-41 42-41 27-1 55-1 82 0 25 0 42 17 43 42 0 14 0 68 0 82z m-544-375c26 1 43 18 43 44 1 27 1 54 0 80 0 26-17 43-43 43-27 1-54 1-81 0-25 0-42-17-43-42 0-27 0-55 0-82 1-25 18-42 43-42 14-1 68-1 81-1z m211 168c-14 0-28 0-42 0-25-1-42-18-43-43 0-28 0-55 0-82 1-24 18-42 42-42 28-1 56-1 83 0 25 0 42 17 42 42 1 27 1 55 0 83 0 23-17 41-41 42-13 0-27 0-41 0z m583-44c-1 26-18 43-44 44-27 0-53 0-80 0-25-1-43-18-43-43-1-27-1-54 0-82 0-25 17-42 42-42 28-1 55-1 82 0 25 0 42 17 43 43 0 13 0 67 0 80z m-333-207c-14 0-28 1-42 0-25 0-42-17-42-42-1-28-1-55 0-82 0-25 17-42 43-43 27 0 54 0 81 0 25 1 42 18 43 42 0 28 0 56 0 84-1 24-18 41-43 41-13 1-27 0-40 0z m248-167c14 0 29 0 43 0 24 1 41 18 42 42 0 28 0 56 0 84-1 24-18 41-42 41-28 1-56 1-84 0-23 0-41-17-41-40-1-29-1-57 0-86 0-23 18-40 41-41 13 0 27 0 41 0z" horiz-adv-x="1000" />

<glyph glyph-name="share" unicode="&#xe835;" d="M210 516c41 0 78-15 107-39l310 179c-2 9-3 19-3 28 0 92 74 166 166 166s165-74 165-166c0-91-74-165-165-165-41 0-78 14-107 38l-309-178c1-10 2-19 2-29s-1-19-2-28l309-179c29 24 66 38 107 38 91 0 165-74 165-165 0-92-74-166-165-166s-166 74-166 166c0 9 1 19 3 28l-310 179c-29-24-66-39-107-39-91 0-165 75-165 166 0 92 74 166 165 166z" horiz-adv-x="1000" />

<glyph glyph-name="unlink" unicode="&#xe836;" d="M193 543h114 31 12c4 0 8-4 8-9v-101c0-5-4-8-8-8h-12-31-114c-21 0-39-9-53-22-14-14-22-33-22-53 0-20 8-39 22-53 13-13 32-21 53-21h114 31 12c4 0 8-4 8-9v-101c0-5-4-8-8-8h-12-31-114c-53 0-102 21-136 56-35 35-57 83-57 136s22 101 57 136c34 35 83 57 136 57l0 0z m468 0h-10c-5 0-9-4-9-9v-101c0-5 4-8 9-8h10 32 115c20 0 39-9 52-22 14-14 22-33 22-53 0-20-8-39-22-53-13-13-32-21-52-21h-115-32-10c-5 0-9-4-9-9v-101c0-5 4-8 9-8h10 32 115c53 0 101 21 136 56 34 35 56 83 56 136 0 53-22 101-56 136-35 35-83 57-136 57h-115-32z m-152 195l-78-268c-2-7-2-7 1-14l2-8 66-181 1-3c1-2-1-5-2-7l-139-297c-2-5-2-6-1-6 2-1 3 1 6 4 13 16 70 86 76 93l162 201c7 9 6 13 4 17l-68 191c-2 5-3 4-1 9l103 269c2 5-1 8-5 8h-116c-5 0-10-3-11-8z" horiz-adv-x="1000" />

<glyph glyph-name="flash" unicode="&#xe837;" d="M494 534q10-11 4-24l-302-646q-7-14-23-14-2 0-8 1-9 3-14 11t-3 16l110 451-226-56q-2-1-7-1-10 0-17 7-10 8-7 21l112 461q2 8 9 13t15 5h183q11 0 18-7t7-17q0-4-2-10l-96-258 221 54q5 2 7 2 11 0 19-9z" horiz-adv-x="500" />

<glyph glyph-name="division" unicode="&#xe838;" d="M187 617v-333c0 0 26 31 59 59 29 25 66 49 66 49v225c37 22 63 62 63 109 0 69-56 125-125 125s-125-56-125-125c0-47 25-87 62-109z m63 171c35 0 63-28 63-62s-28-63-63-63c-34 0-62 28-62 63s28 62 62 62z m625-62c0 69-56 125-125 125s-125-56-125-125c0-46 24-86 61-108 1-20 6-57-30-96-49-53-153-100-265-158-85-43-149-100-178-156-32-61-26-117-26-124-37-22-62-62-62-109 0-69 56-125 125-125s125 56 125 125c0 47-25 88-63 109-1 18 1 60 28 91 39 44 107 79 189 121 24 12 108 54 141 76 46 31 100 85 119 125 26 53 23 105 22 119 38 22 64 63 64 110z m-562-751c0-34-28-62-63-62-34 0-62 28-62 62s28 63 62 63c35 0 63-28 63-63z m437 688c-34 0-62 28-62 63s28 62 62 62c35 0 63-28 63-62s-28-63-63-63z" horiz-adv-x="1000" />

<glyph glyph-name="agreement" unicode="&#xe839;" d="M975 657c-13 7-28 5-40-3l-11-7c-18-14-68-48-84-55-8 2-26 8-42 13-57 19-142 49-206 46-29-1-58-17-86-40-11 10-27 21-47 30-57 27-141 4-203-20-11-4-20-8-30-12-28-11-52-20-64-20-11 2-45 26-64 39-38 26-54 38-74 31-9-4-16-12-18-22-1-2-1-5-1-7 1-27 1-273 0-308 0-3 1-7 2-10 6-16 19-23 34-29 12-6 29-14 45-29-7-9-11-21-9-33 2-12 9-23 20-30 39-26 137-91 194-127 1 0 1 0 2-1 20-10 41-16 61-16 12 0 25 2 37 6 11 4 21 9 29 15 20-12 53-29 90-29 20 0 41 4 62 17 63 38 189 113 242 150 1 2 3 2 4 4l0 0c4 2 6 4 8 6 27 20 90 51 139 74 9 4 30 13 30 35v297c2 15-6 28-20 35z m-601-551c-16-5-34-4-53 6-52 32-137 88-181 117 43 48 78 67 91 60 69-47 140-97 193-139-8-15-27-36-50-44z m170-2c-28-17-59-7-80 4 7 9 13 19 16 27 8 19 3 40-13 53l0 0c-56 44-131 98-206 147l-1 1c-43 26-92-2-134-41-23 21-46 32-61 39-1 0-1 0-3 1 0 48 1 178 0 250 2-2 3-3 5-4 43-29 71-48 94-48h1c22 0 47 10 85 25 9 3 19 7 30 12 71 27 129 35 158 21 12-5 21-11 28-17-8-8-16-16-24-24l-2-3c-15-15-30-28-43-40-19-18-33-32-41-42-10-13-12-30-5-45 54-111 131-75 160-62l2 0c16 9 37 25 57 41 7 6 18 14 25 20 29-29 106-114 167-183-56-36-151-94-215-132z m397 236c-32-15-96-45-136-71-179 203-190 207-198 210-3 1-7 1-11 1-18 0-36-14-65-37-15-12-35-28-45-33l-2-1c-29-13-54-25-82 27 8 8 19 18 31 30 13 12 28 26 44 41l2 3c38 37 85 84 116 85 53 2 133-25 185-43 35-12 50-17 62-17 16 0 39 12 99 54v-249h0z" horiz-adv-x="1000" />

<glyph glyph-name="up-open" unicode="&#xe83a;" d="M564 280q16-16 16-41t-16-41q-38-38-78 0l-196 188-196-188q-40-38-78 0-16 16-16 41t16 41l234 224q16 16 40 16t40-16z" horiz-adv-x="580" />

<glyph glyph-name="down-open" unicode="&#xe83b;" d="M564 422l-234-224q-18-18-40-18t-40 18l-234 224q-16 16-16 41t16 41q38 38 78 0l196-188 196 188q40 38 78 0 16-16 16-41t-16-41z" horiz-adv-x="580" />

<glyph glyph-name="plus" unicode="&#xe83c;" d="M550 400q30 0 30-50t-30-50l-210 0 0-210q0-30-50-30t-50 30l0 210-210 0q-30 0-30 50t30 50l210 0 0 210q0 30 50 30t50-30l0-210 210 0z" horiz-adv-x="580" />

<glyph glyph-name="down-dir" unicode="&#xe83d;" d="M571 457q0-14-10-25l-250-250q-11-11-25-11t-25 11l-250 250q-11 11-11 25t11 25 25 11h500q14 0 25-11t10-25z" horiz-adv-x="571.4" />

<glyph glyph-name="field" unicode="&#xe83e;" d="M495 411c-13 0-24 2-33 5l-434 184c-19 8-21 23-21 28 0 9 4 26 33 38l410 173c16 7 36 11 55 11 13 0 24-2 33-6l434-183c19-8 21-23 21-29 0-8-4-25-33-37l-410-174c-16-6-36-10-55-10z m-441 219l423-179c2-1 7-2 18-2 14 0 29 3 40 7l410 174c1 0 1 0 1 0l-423 179c-2 1-7 3-18 3-14 0-28-3-40-8l-410-173c-1 0-1 0-1-1z m496-481l410 173c29 12 33 29 33 38 0 5-2 20-21 28l-174 73c-9 5-21 0-25-10s1-20 10-25l163-68c0-1 0-1-1-1l-410-173c-20-9-47-10-58-5l-423 179c0 0 0 0 1 0l162 69c10 4 14 15 10 25-4 9-15 14-25 10l-162-69c-29-12-33-29-33-37 0-6 2-21 21-29l434-184c9-3 21-5 34-5 17 0 37 4 54 11z m0-288l410 173c29 13 33 29 33 38 0 6-2 20-21 28l-174 74c-9 4-21-1-25-11-4-9 1-20 10-24l163-69c0 0 0-1-1-1l-410-173c-20-9-47-10-58-5l-423 179c0 0 0 0 1 0l162 69c10 4 14 15 10 25-4 9-15 14-25 10l-162-69c-29-12-33-29-33-37 0-6 2-20 21-29l434-184c9-3 21-5 34-5 17 0 37 4 54 11z" horiz-adv-x="1000" />

<glyph glyph-name="user-1" unicode="&#xe83f;" d="M816 169l-109 60c-8 4-13 12-13 21v37c10 14 32 46 43 89 7 7 18 23 18 42v49c0 13-4 25-12 35v62c1 9 3 52-28 87-27 31-71 47-129 47-58 0-102-16-128-47-15-17-23-36-26-52-20 8-42 12-67 12-109 0-143-77-144-118 0-1 0-1 0-1v-53c-9-9-13-21-13-32v-42c0-15 6-29 17-39 11-36 33-64 44-76v-30c0-6-3-12-9-15 0 0-1-1-1-1l-83-53c-34-18-55-54-55-93v-34c0-12 10-22 22-22h172 542c12 0 22 10 22 22v40c0 44-24 84-63 105z m-652-110c0 23 13 44 34 56 0 0 1 0 1 0l82 52c19 10 30 30 30 52v39c0 6-2 12-7 16 0 0-31 29-40 68-1 6-4 10-9 14-3 2-4 5-4 8v43c0 1 1 4 5 7 4 5 7 10 7 16v61c1 10 10 78 101 78 26 0 47-6 65-17v-50c-8-10-12-22-12-35v-49c0-17 7-33 19-44 11-42 33-73 42-87v-37c0-9-5-17-12-21l-110-60c-38-21-62-61-62-105v-19h-130v14z m672-14h-297-202v19c0 28 15 54 40 67l110 60c22 12 35 34 35 59v44c0 6-2 10-5 14 0 1-29 35-40 83-1 6-5 10-9 14-4 3-7 7-7 13v49c0 5 3 9 5 11 5 4 7 10 7 16v71c0 1 0 2 0 3 0 1-3 32 18 55 19 21 51 32 97 32 45 0 77-11 96-32 21-23 18-54 18-54 0-1 0-2 0-3v-71c0-6 2-12 7-16 2-2 5-6 5-11v-49c0-5-5-12-9-15-3-3-5-7-6-12-11-47-40-82-40-83-4-4-5-8-5-14v-44c0-25 13-47 35-59l110-60c24-13 40-39 40-67v-20z" horiz-adv-x="1000" />

<glyph glyph-name="arrow-up" unicode="&#xe840;" d="M502 695l498-633-110-55-386 283-398-285-106 49 502 641z" horiz-adv-x="1000" />

<glyph glyph-name="exclamation" unicode="&#xe841;" d="M422-28h157v-123h-157v123z m0 877h157v-701h-157v701z" horiz-adv-x="1000" />

<glyph glyph-name="user-check" unicode="&#xe842;" d="M1002 385c0 0-92-74-166-181-83-121-149-276-149-276s-51 74-111 118c-62 47-133 63-133 63l78 150c0 0 40-22 79-55 43-37 87-87 87-87s88 109 173 181c71 61 142 87 142 87z m-504-354c-52 32-113 47-113 47l125 240c0 0 20-7 68-42 42-31 107-76 107-76s-7 36-13 65c-13 57-52 89-103 102-50 13-94 47-94 47s-5-96-104-96c-115 1-120 69-134 90-6-8-16-17-30-25-25-15-65-22-103-40-31-14-51-44-63-75-21-51-43-180-39-224 3-35 23-40 71-55 285-87 497-17 497-17s-30 32-72 59z m-251 422c0 0-3-14 4-28 8-20 37-76 104-76 81 0 100 56 109 76 7 16 10 35 10 35s41 48 41 96c0 28-17 28-17 28s15 76-17 132c-9 17-23 32-43 43-26 15-113 30-171-6-12-7-23-17-34-31-35-48-15-130-20-138-28-17-12-64 7-97 12-22 27-34 27-34z" horiz-adv-x="1000" />

<glyph glyph-name="mobile" unicode="&#xe843;" d="M707 850h-413c-41 0-74-33-74-74v-851c0-41 33-75 74-75h413c41 0 74 34 74 75v851c0 41-33 74-74 74z m-171-934c-2-15-14-26-29-29-25-5-48 17-43 43 3 14 15 26 29 29 26 5 48-18 43-43z m186 81h-443v743h443v-743z" horiz-adv-x="1000" />

<glyph glyph-name="plam" unicode="&#xe844;" d="M288 395c0 78 0 156 0 234 0 36-1 71 0 107 0 33 21 55 51 55 30 0 49-23 50-56 0-104 0-207 0-311 0-10 0-20 0-30 9 0 15 0 24 0 0 7 0 14 0 21 0 128 0 256 0 384 0 25 14 43 35 49 23 6 47-2 57-21 6-10 8-23 8-35 0-122 0-244 0-367 0-10 0-20 0-31 11 0 20 0 31 0 0 8 0 16 0 24 0 94 0 188 0 282 0 21 9 36 28 45 19 9 38 7 55-6 16-12 18-28 18-46 0-146 0-291 0-437 0-7 0-15 0-27 7 6 11 9 15 13 25 27 51 55 77 82 22 24 52 28 75 10 24-19 28-40 10-70-57-98-114-197-172-294-46-77-118-114-205-119-38-3-77-1-114 4-90 14-145 71-155 162-7 64-9 129-9 193-1 144-1 288 0 432 0 42 38 66 74 48 21-10 27-28 27-50 0-76 0-152 0-228 0-11-1-24 20-17z" horiz-adv-x="1000" />

<glyph glyph-name="rfid" unicode="&#xe845;" d="M440-47c0 2 0 4 0 5 0 141 0 282 0 424 0 7 0 7-8 7-40 0-79 0-119 0-12 0-20 5-23 16-1 3-2 7-2 10 0 76 0 151 0 227 0 10 3 19 13 23 4 2 9 3 14 3 123 0 246 0 369 0 7 0 15-2 20-6 4-5 7-10 7-17 0-53 0-106 0-160 0-24 1-48 0-72 0-10-4-18-14-22 3-5 6-9 9-14 6-8 12-17 18-25 9-12 17-24 25-35 8-11 15-21 22-31 12-16 16-34 13-54-2-9-7-18-13-26-6-7-11-15-17-23-5-8-11-15-16-23-6-8-11-17-17-25-5-6-9-12-14-19-5-8-11-16-16-24-7-9-13-18-20-28-4-6-9-13-13-19-2-3-4-5-6-8-1-2-3-5-3-8 0-25 0-51 0-76-69 0-139 0-209 0z m193 18c0 2 0 4 0 5 0 19 0 39 0 58 0 3 0 6 2 8 4 8 10 15 15 22 6 9 13 18 19 27 8 11 16 23 24 34 9 12 17 24 25 36 7 10 14 20 21 30 3 4 6 8 9 12 5 7 9 14 14 20 5 8 7 17 6 26-1 11-5 20-13 29-6 8-12 17-18 26-11 15-21 31-32 46-8 12-17 24-25 36-2 3-4 3-7 3-36 0-72 0-107 0-1 0-3 1-3 0-1-1-3-2-3-3 0-4 1-8 1-12 0-16 0-32 0-47-1-7-1-13-1-19 0-5 0-10 2-13 4-7 9-13 14-20 3-4 7-9 10-14 3-5 2-8-2-11-4-3-8-3-11 1-2 1-3 3-4 4-6 9-13 19-20 28-4 6-6 11-6 19 0 58 0 116 0 175 0 10 0 20-5 29-6 9-13 17-24 20-15 4-30 4-42-7-10-9-16-19-16-33 0-170 0-339 0-509 0-2 0-4 0-6 59 0 118 0 177 0z m-633 581c1 12 2 25 4 37 1 8 3 15 4 23 1 6 2 13 4 19 3 13 7 26 11 39 3 10 7 19 11 29 2 7 6 14 9 21 3 5 5 10 8 15 1 4 4 8 6 11 0 1 2 1 3 1 3-2 6-4 9-5 5-2 3-4 2-7-5-9-10-17-14-26-4-8-8-16-11-24-3-6-5-12-7-18-3-10-6-21-9-31-3-12-4-25-7-37-3-18-5-36-6-54-1-20 1-40 2-60 0-8 1-15 2-23 3-12 5-23 8-35 3-12 6-24 10-36 4-11 9-22 14-33 3-8 6-15 10-22 2-5 4-9 7-13 3-5 3-7-2-9-4-1-7-3-11-5-4 8-8 17-13 26-3 7-6 14-9 21-3 6-6 13-8 20-4 11-8 21-11 32-1 2-1 5-1 7-3 10-5 20-7 30-2 12-4 25-6 37-1 8-1 15-2 22 0 16 0 32 0 48z m1000-52c-1-1-1-2-1-3-1-10-2-20-3-30-2-11-4-23-6-34-2-8-4-17-6-25-4-12-9-24-13-36-3-9-6-18-10-26-5-11-12-22-17-33-1-1-1-3-2-4-5 2-9 5-15 7 2 3 3 7 5 10 6 13 13 26 19 39 3 7 5 15 8 23 3 10 7 21 10 32 2 7 3 14 5 21 2 11 4 22 5 33 2 13 3 26 4 39 0 8 1 16 1 24-1 13-2 26-3 39-1 7-2 14-3 21-1 8-3 15-5 22-2 11-4 21-7 31-3 9-7 18-10 27-3 8-6 17-10 24-5 13-12 25-18 37 0 0 0 1 0 2 3 2 6 4 10 6 2 1 5 2 6-2 4-7 8-14 11-22 4-7 7-14 11-21 1-3 3-7 4-11 4-10 8-19 11-30 2-7 3-14 5-21 2-10 5-19 7-29 1-3 1-5 1-8 1-9 2-18 3-27 1-6 2-11 3-17 0-19 0-39 0-58z m-152 194c5-10 9-19 14-29 4-8 7-16 11-25 2-7 4-14 6-21 3-12 5-23 7-35 1-6 2-13 3-19 1-14 2-29 3-43 0-9-1-18-2-26-1-10-3-20-4-30-2-7-3-14-5-21-3-10-6-20-10-30-1-4-2-8-4-11-4-10-8-20-12-29-2-4-5-8-7-13-5 2-9 4-13 7-1 1-1 3-1 5 5 8 9 17 13 26 3 6 6 13 8 19 3 8 6 15 8 23 2 8 4 16 5 25 2 8 4 16 5 23 1 7 1 14 1 21 0 17 0 35-1 52-1 9-3 19-5 28-2 7-2 14-5 21-4 13-8 26-13 38-5 11-10 21-15 32-2 2-2 5 1 7 4 1 8 3 12 5z m-696-332c-6 13-13 25-19 37-1 3-2 6-3 9-4 10-7 20-10 30-2 11-5 23-7 35-1 8-1 15-3 22-3 20-1 39-1 59 0 9 3 19 4 28 2 9 3 19 5 28 3 10 7 20 10 30 2 7 5 14 7 20 3 7 7 14 11 21 1 3 3 7 4 10 1 1 2 2 2 2 4-2 9-3 13-5 1-1 0-5 0-7-5-10-11-20-15-31-5-11-8-23-12-35-4-9-5-19-7-29-5-24-6-48-5-73 0-13 2-26 4-39 0-6 2-12 3-18 2-8 5-16 7-23 2-7 4-13 6-19 5-11 10-21 15-31 1-3 3-6 4-9 2-3 1-5-2-6-4-2-7-4-11-6z" horiz-adv-x="1000" />

<glyph glyph-name="face" unicode="&#xe846;" d="M496-29c-33 0-77 3-111 7-16 2-28 8-35 18-8 10-10 24-7 39 4 24-1 46-15 65-13 17-25 36-35 53-12 21-24 40-39 58-40 49-41 114-42 162 0 12 7 30 22 35 7 2 7 2 6 18 0 4 0 7 0 11l0 3c0 32 0 66 8 100 28 118 122 189 252 189 0 0 1 0 1 0 129 0 223-71 251-189 8-34 8-68 9-100l0-3c0-4 0-7-1-11-1-16 0-16 6-18 0 0 0 0 0 0 15-5 22-23 22-35-1-48-2-113-42-162-15-18-26-37-39-58-11-17-22-36-35-53-14-19-20-40-15-65 3-15 1-29-6-39-8-10-20-16-36-18-38-5-84-7-115-7-1 0-2 0-4 0z m-111 51c1-1 3-1 5-1 34-4 78-7 110-6 29 0 73 2 110 6 2 0 4 1 5 1 0 1 0 3 0 6-7 35 1 70 23 98 12 16 22 33 33 50 12 21 25 43 42 63 28 33 31 79 32 132-30 13-28 43-28 58 0 2 1 5 0 8l0 3c0 31 0 61-7 91-23 97-102 155-210 155 0 0 0 0 0 0-109 0-188-58-210-155-7-30-8-60-8-91l0-3c0-3 0-6 0-8 0-15 2-45-28-58 1-53 5-99 32-132 16-20 30-42 43-63 11-17 21-34 32-50 22-28 30-62 23-98 1-3 1-5 1-6z" horiz-adv-x="1000" />

<glyph glyph-name="qr-code" unicode="&#xe847;" d="M907 327c-15 0-30 0-48 0 0-16 0-31 0-47-48 0-94 0-142 0 0-48 0-95 0-144 15 0 31 0 46 0 0-16 0-31 0-49-18 0-32 0-46 0 0-17 0-31 0-45 63 0 125 0 188 0 0 31 0 62 0 93-49 0-95 0-142 0 0 15 0 30 0 48 32 0 63 0 95 0 0 16 0 30 0 46 16 0 31 0 48 0 0-14 0-29 0-45 17 0 31 0 47 0 0-48 0-95 0-144 17 0 32 0 48 0 0-32 0-62 0-94-15 0-30 0-46 0 0 15 0 29 0 45-16 0-31 0-48 0 0-14 0-29 0-45-17 0-31 0-47 0 0 14 0 29 0 45-17 0-32 0-48 0 0-14 0-28 0-44-16 0-31 0-48 0 0 14 0 28 0 44-17 0-31 0-47 0 0-14 0-28 0-46-34 0-66 0-97 0l0-1c0 31 0 62 0 96-16 0-30 0-46 0 0 16 0 30 0 47 29 0 60 0 92 0 0 33 0 63 0 97-15 0-31 0-46 0l0-1c0 16 0 31 0 49 18 0 32 0 46 0 0 17 0 31 0 47-33 0-63 0-94 0 0 16 0 32 1 48l-1-1c31 0 63 0 94 0 0 18 0 32 0 49-16 0-30 0-46 0 0 18 0 32 0 47l0 0c14 0 29 0 47 0 0 16 0 30 0 46 48 0 95 0 144 0 0-31 0-63 0-94-31 0-63 0-94 0 0-17 0-32 0-46 32 0 62 0 94 0 0 17 0 32 0 47 32-1 64-1 96-1l-1 1c0-17 0-33 0-49l1 1z m-906 524c111 0 220 0 331 0 0-111 0-220 0-331-110 0-220 0-331 0 0 109 0 219 0 331z m283-285c0 80 0 159 0 236-80 0-158 0-236 0 0-79 0-157 0-236 79 0 157 0 236 0z m48-384c0-111 0-221 0-331-110 0-219 0-331 0 0 109 0 219 0 331 109 0 219 0 331 0z m-283-47c0-80 0-159 0-236 79 0 158 0 235 0 0 79 0 157 0 236-78 0-156 0-235 0z m620 716c111 0 221 0 331 0 0-111 0-220 0-331-109 0-219 0-331 0 0 109 0 219 0 331z m284-49c-80 0-158 0-236 0 0-80 0-158 0-235 80 0 157 0 236 0 0 78 0 156 0 235z m-573-331c0-15 1-30 2-48 14 0 29 0 46 0 0-17 0-31 0-47 17 0 32 0 48 0 0 30 0 60 0 92 48 0 94 0 144 0 0-15 0-31 0-46l0 1c-15 0-31 0-48 0 0-34 0-65 0-97l1 1c-32 0-63 0-97 0 0-18 0-32 0-48-17 0-32 0-47 0l0 0c0 15 0 30 0 48-17 0-33 0-48 0l1-1c0 16 0 31 0 49-18 0-33 0-49 0l1-1c0 15 0 31 0 48-18 0-33 0-48 0l0 0c0 15 0 30 0 48 32 0 64 0 95 0 0 0-1 1-1 1z m192 237c15 0 30 0 46 0 0-32 0-62 0-94-30 0-60 0-93 0 0-32 0-63 0-95-17 0-31 0-48 0 0 15 0 29 0 45-16 0-31 0-48 0 0-31 0-61 0-93-18 0-34 0-49 0 0 0 1-1 1-1 0 63 0 125 0 190 64 0 126 0 192 0 0 18 0 33 0 49l-1-1z m47-524c0-15 0-30 0-48-31 0-62 0-94 0 0-16 0-30 0-46-32 0-62 0-97 0 0 15 0 30 0 46 16 0 31 0 47 0 0 17 0 32 0 46-16 0-31 0-46 0 0-17 0-32 0-47-15 0-30 0-48 0 0 49 0 97 0 144l0-1c16 0 32 0 48 0l-1 1c0-15 0-31 0-48 34 0 65 0 97 0 0-15 0-31 0-48 33 0 64 0 95 0l-1 1z m288 190c0 15 0 30 0 47-16 0-31 0-47 0 0 17 0 32 0 48 31 0 61 0 93 0 0-15 0-30 0-47 17 0 32 0 47 0 0-48 0-94 0-141-30 0-60 0-93 0 0 15 0 31 0 46l-1-1c16 0 31 0 46 0 0 18 0 33 0 49-16 0-31 0-46 0l1-1z m-288-429c0-16 0-32 0-48l1 0c-31 0-62 0-95 0 0-15 0-30 0-46-17 0-31 0-48 0 0 31 0 63 0 94l-1-1c15 0 31 0 48 0 0 18 0 33 0 49l0-1c15 0 30 0 47 0 0-16 0-30 0-48 18 0 33 0 49 0l-1 1z m-478 380c0-32 0-62 0-93-15 0-29 0-46 0 0 15 0 30 0 46-16 0-30 0-47 0 0-14 0-29 0-45-17 0-31 0-47 0 0 30 0 60 0 92 46 0 92 0 140 0z m432 384c-31 0-62 0-95 0 0 47 0 94 0 141 15 0 29 0 45 0 0-30 0-60 0-94 18 0 34 0 49 0l0 1c0-17 0-33 0-49l1 1z m-573-333c0 31 0 61 0 92 31 0 62 0 93 0 0-30 0-60 0-92-30 0-60 0-93 0z m572 380c0 30 0 61 0 94 16 0 30 0 46 0 0-30 0-60 0-94-15 0-31 0-46 0l0 0z m-145-46c-15 0-29 0-45 0 0 31 0 61 0 93 16 0 29 0 45 0 0-31 0-61 0-93z m-141-335c-31 0-62 0-95 0 0 16 0 32 0 47l-1 0c32 0 64 0 96 0l-1 0c0-16 0-32 0-48l1 1z m141-429c0-31 0-62 0-95-14 0-28 0-44 0 0 30 0 61 0 94 15 0 30 0 45 0 0 0-1 1-1 1z m146 618c16 0 30 0 45 0 0-14 0-29 0-45-14 0-29 0-45 0 0 15 0 29 0 45z m-241-284c0-15 0-31 0-47-15 0-29 0-44 0 0 14 0 28 0 46 14 0 29 0 45 0 0 0-1 1-1 1z m50-1c-17 0-33 1-50 1 0 0 1-1 1-1 0 16 0 32 1 48l-1-1c16 0 32 0 48 0l0 1c0-16 0-32 0-48l1 0z m-48 48c-15 0-30 0-48 0 0 17 0 32 0 48l-1-1c16 0 33 0 49 0l-1 1c0-16 0-33 0-49l1 1z m95-334c-15 0-30 0-46 0 0 16 0 30 0 46 14 0 28 0 45 0 0-16 0-31 0-47l1 1z m48-1c0 15 0 30 0 46 15 0 30 0 47 0 0-15 0-30 0-46l1 1c-16 0-33 0-49 0l1-1z m-49 0c17 0 33 0 49 0l-1 1c0-16 0-33 0-49l1 1c-17 0-33 1-50 1 0 0 1-1 1-1 1 16 1 32 1 48l-1-1z m-237 430c-15 0-30 0-47 0 0 16 0 30 0 46 14 0 29 0 46 0 0-15 0-31 0-46l1 0z m428-525c15 0 30 0 47 0 0-16 0-30 0-46-14 0-29 0-46 0 0 15 0 31 0 46l-1 0z m98-1c16 0 29 0 44 0 0-15 0-29 0-45-14 0-28 0-44 0 0 15 0 29 0 45z m140-1c0-15 0-29 0-44-15 0-29 0-44 0 0 14 0 28 0 44 14 0 28 0 44 0z m96 1c0-15 0-29 0-45-15 0-29 0-45 0 0 14 0 29 0 45 14 0 28 0 45 0z m-477 48c0 16 0 33 0 49 16 0 33 0 49 0 0-16 0-31 0-49-18 0-33 0-49 0z m48 287c0 15 0 30 0 48 17 0 33 0 48 0 0-15 0-30 0-48-17 0-32 0-48 0z m-287 524c0-47 0-93 0-140-47 0-93 0-141 0 0 46 0 92 0 140 47 0 92 0 141 0z m-1-809c-47 0-93 0-140 0 0 47 0 93 0 141 47 0 92 0 140 0 0-46 0-93 0-141z m528 669c0 47 0 93 0 140 47 0 93 0 140 0 0-46 0-92 0-140-45 0-92 0-140 0z" horiz-adv-x="1000" />

<glyph glyph-name="edit-profile" unicode="&#xe848;" d="M174 512c0 124 102 226 226 226s227-102 227-226c0-127-105-230-227-227-121-3-226 100-226 227z m403-359c0 55 20 105 54 144-8 5-15 11-24 16-19 11-19 11-36-3 0 0-2-3-5-3-58-44-124-66-196-58-55 6-105 28-146 66-9 9-14 9-25 3-80-49-141-116-174-204-11-28-17-58-22-88-3-20 5-31 25-33 5 0 11-3 19-3 119 0 237 0 353 0 83 0 166 0 249 0-44 40-72 98-72 163z m421 2c0-104-88-193-193-193s-194 86-194 193c0 105 86 194 194 194 107 0 193-89 193-194z m-102 64l-31 30c-3 3-5 3-8 0l-149-149c0-3-3-3-3-5l-8-36c0 0 0-3 3-6 2-2 2-2 5-2 3 0 3 0 3 0l36 8c3 0 5 0 5 3l9 8-39 39 14 13 38-38 92 91-39 38 14 14 38-38 20 19c2 3 2 5 0 11z" horiz-adv-x="1000" />

<glyph glyph-name="emergency" unicode="&#xe849;" d="M174 22c32 0 61 0 85 0 24 129 48 259 72 386 10 61 45 90 105 93 51 0 101 0 151 0 59 0 93-29 104-87 21-117 42-233 63-350 3-13 3-26 3-42 29 0 58 0 90 0 0-32 0-59 0-88-225 0-450 0-675 0 2 29 2 56 2 88z m331 42c67 0 133 0 199 0 0 16 3 29 0 42-16 93-34 186-50 278-6 32-29 56-61 59-27 2-56 0-85 0-3-125-3-252-3-379z m-238 395c16 13 34 31 50 45-47 47-95 95-140 140-16-16-32-32-48-48 48-47 96-95 138-137z m553 182c-45-45-92-92-137-137 16-16 32-35 47-51 48 48 96 96 141 141-16 18-35 34-51 47z m-802-267c-5-27-10-50-16-74 66-13 130-27 196-40 6 24 11 48 16 74-66 13-130 27-196 40z m784-114c66 13 130 27 196 40-6 24-11 47-16 74-66-13-130-27-196-40 5-26 8-50 16-74z m-347 307c27 0 50 0 74 0 0 66 0 133 0 199-26 0-50 0-74 0 0-66 0-133 0-199z" horiz-adv-x="1000" />

<glyph glyph-name="ok" unicode="&#xe84a;" d="M786 730l-499-491-71 72c-49 49-128 50-177 2l-2-2c-49-48-50-128-1-177l153-155c2-2 4-4 5-6l2-2c48-49 128-49 177-1l590 580c49 48 49 128 1 177l-1 1c-49 49-128 50-177 2z" horiz-adv-x="1000" />

<glyph glyph-name="video" unicode="&#xe84b;" d="M577 819c-84 0-161-61-185-144l-3-11-3 11c-21 87-97 146-183 144l0 0 0 0c-2 0-3 0-5 0-50 0-98-19-134-55-38-37-59-87-59-140 0-106 88-193 195-193 87 0 163 59 186 142l3 11 3-11c22-83 97-139 185-139 56 0 106 21 143 59 36 37 54 85 53 136 0 103-90 190-196 190z m-377-331c-78 0-139 60-139 136 0 37 15 72 41 99 26 26 60 40 96 40l0 0 4 0 2 0 4 0c72 0 128-61 128-139 0-75-61-136-136-136z m480 44c-26-27-63-41-103-41-76 0-136 58-136 133 0 36 16 71 42 98 26 26 60 41 94 41 36 0 71-15 98-40 26-26 41-60 41-94 2-37-11-71-36-97z m315-605v435c0 9-5 18-13 24-9 5-19 5-28 1l-204-106v29c0 56-31 88-86 88h-573c-53 0-86-33-86-85v-346c0-52 33-86 83-86h579c51 0 82 31 86 84l0 0c0 0 0 1 0 2v38l4-3c12-6 25-12 37-18 5-3 11-6 16-8 44-22 94-47 144-74 8-5 19-5 27 0 9 5 14 15 14 25z m-57 46l-4 2c-29 16-61 32-99 51-31 16-64 32-97 50-9 4-20 4-28-1-8-6-14-15-14-24l0-83c-2-26-10-30-29-30h-579c-17 0-27 5-27 29v346c0 21 8 29 30 29h573c21 0 30-3 30-32 0-26 0-75 0-75 0-10 5-19 14-24 8-5 18-6 27-1l203 105v-342z" horiz-adv-x="1000" />

<glyph glyph-name="medical2" unicode="&#xe84c;" d="M934 628h-181v10c0 36 0 72 0 108s-17 56-53 69c0 0-3 0-3 3h-394c-4 0-4-3-7-3-30-6-49-33-49-62 0-36 0-69 0-109v-16h-181c-36 0-56-17-69-53 0 0 0 0 0-3v-348-293c3-3 3-7 3-10 7-23 30-39 56-39 4 0 7 0 10 0h861c43 0 69 23 69 69v269 339c7 42-20 69-62 69z m-618 95c0 16 16 26 33 26 69 0 141 0 210 0 33 0 66 0 99 0 23 0 36-13 36-36v-89h-378c0 37 0 70 0 99z m187-690c-112 0-200 89-200 200 0 112 88 201 200 201s201-89 201-201c0-108-89-200-201-200z m46 329h-98v-86h-89v-98h89v-89h98v89h86v98h-86v86z" horiz-adv-x="1000" />

<glyph glyph-name="information" unicode="&#xe84d;" d="M598-146c-65 0-131 0-196 0 0 228 0 458 0 686 65 0 131 0 196 0 0-231 0-458 0-686z m0 786c-65 0-131 0-196 0 0 53 0 108 0 161 65 0 131 0 196 0 0-54 0-107 0-161z" horiz-adv-x="1000" />

<glyph glyph-name="arrow" unicode="&#xe84e;" d="M797 463c-79 113-160 226-242 336-21 31-38 46-55 46-17 0-34-15-55-46-81-110-163-223-242-336-10-16-21-48-13-61 8-15 37-23 58-26 49-3 97 0 158 0v-81c0-7 0-13 0-19 0-102 0-202 0-305 0-69 34-113 89-116v0c1 0 3 0 5 0 0 0 0 0 0 0s0 0 0 0c2 0 4 0 6 0v0c54 3 89 47 89 116 0 103 0 203 0 305 0 6-1 13-1 19v81c61 0 110-3 158 0 21 3 50 11 58 26 8 14-2 45-13 61z" horiz-adv-x="1000" />

<glyph glyph-name="camera" unicode="&#xe84f;" d="M5-23v620h292l31 126h358l31-126h278v-621h-990z m218 342c0-78 27-144 82-196 54-55 120-82 196-82s142 27 196 81c55 55 82 121 82 197s-27 144-82 196c-54 55-118 82-196 82s-142-27-196-82c-55-54-82-118-82-196l0 0z m84 0c0 54 19 101 56 140 39 39 84 58 138 58s101-19 140-58c39-39 58-86 58-140 0-55-19-101-58-138-39-39-86-57-140-57s-101 20-138 57c-39 37-56 83-56 138l0 0z m521 136h142v82h-142v-82z" horiz-adv-x="1000" />

<glyph glyph-name="cross-1" unicode="&#xe850;" d="M746 802l-246-242-245 242c-59 57-153 56-210-2l-3-2c-57-58-56-153 2-210l242-238-242-238c-58-57-59-151-2-210l3-2c57-58 151-59 210-2l245 242 246-242c58-57 152-56 210 2l2 2c57 59 56 153-2 210l-242 238 242 238c58 57 59 151 2 210l-2 2c-58 58-152 59-210 2z" horiz-adv-x="1000" />

<glyph glyph-name="building-1" unicode="&#xe851;" d="M805-130c35 0 68 0 102 0 0-7 1-13 1-20-273 0-544 0-816 0 0 6 0 12 0 20 31 0 63 0 97 0 0 15 0 27 0 42 21 0 40 0 63 0 0 11 0 20 0 29 0 191 0 382-1 573 0 18 5 32 20 41 20 11 26 28 24 51-2 26 0 52 0 80 55 0 108 0 163 0 1 14 2 27 3 41 20 0 38 0 59 0 0 37 1 73 0 108 0 14 5 18 19 13 0-39 0-78 0-119 14 0 27 0 42 0 0 19 0 38 0 58 8 1 13 1 20 1 0-20 0-39 0-60 21 0 39 0 59 0 0-14 0-26 0-41 15 0 28 0 41 0 1-9 1-15 1-22 0-100 1-201 0-301 0-17 3-31 17-41 20-15 25-35 25-60-2-107-1-215-1-322 0-9 0-18 0-29 21 0 40 0 62 0 0-15 0-28 0-42z m-390 695c0 28 0 53 0 79-27 0-52 0-79 0 0-27 0-53 0-79 27 0 52 0 79 0z m123-1c0 27 0 53 0 80-27 0-52 0-78 0 0-27 0-53 0-80 26 0 51 0 78 0z m43 1c28 0 53 0 78 0 0 27 0 53 0 79-27 0-52 0-78 0 0-27 0-52 0-79z m-166-122c0 28 0 54 0 79-27 0-53 0-79 0 0-27 0-52 0-79 27 0 52 0 79 0z m124 79c-28 0-54 0-80 0 0-27 0-52 0-78 28 0 54 0 80 0 0 27 0 52 0 78z m121 1c-28 0-53 0-79 0 0-28 0-54 0-80 27 0 53 0 79 0 0 27 0 53 0 80z m-244-242c-28 0-53 0-80 0 0-27 0-53 0-78 27 0 53 0 80 0 0 26 0 51 0 78z m43 0c0-27 0-53 0-79 28 0 54 0 79 0 0 27 0 53 0 79-26 0-52 0-79 0z m122 0c0-27 0-53 0-78 27 0 53 0 79 0 0 27 0 52 0 78-27 0-53 0-79 0z m-244-125c0-28 0-54 0-79 27 0 52 0 78 0 0 27 0 52 0 79-27 0-52 0-78 0z m202 0c-28 0-53 0-79 0 0-28 0-54 0-80 27 0 52 0 79 0 0 27 0 53 0 80z m121 0c-27 0-53 0-79 0 0-27 0-53 0-80 27 0 53 0 79 0 0 27 0 52 0 80z m-244-123c-28 0-54 0-80 0 0-27 0-53 0-79 27 0 53 0 80 0 0 27 0 52 0 79z m122-79c0 27 0 53 0 79-27 0-53 0-78 0 0-28 0-53 0-79 26 0 52 0 78 0z m42 0c28 0 54 0 80 0 0 28 0 53 0 79-28 0-53 0-80 0 0-27 0-52 0-79z m-244 449c0-28 0-54 0-80 27 0 53 0 80 0 0 23 0 44 0 65 1 11-4 15-15 15-21 0-42 0-65 0z m203-1c-28 0-53 0-79 0 0-27 0-53 0-79 27 0 52 0 79 0 0 26 0 52 0 79z m42 0c0-27 0-52 0-79 27 0 53 0 79 0 0 27 0 53 0 79-27 0-52 0-79 0z" horiz-adv-x="1000" />

<glyph glyph-name="menu" unicode="&#xe852;" d="M500 850c-276 0-500-224-500-500s224-500 500-500 500 224 500 500-224 500-500 500z m-22-779c-87 0-172 0-258 0 0 87 0 172 0 259 85 0 171 0 258 0 0-85 0-172 0-259z m2 316c-85 0-172 0-259 0 0 85 0 172 0 258 87 0 172 0 259 0 0-86 0-171 0-258z m313-186c-22 0-42 0-64 0 0-22 0-45 0-65 20 0 42 0 64 0 0-22 0-42 0-65-20 0-42 0-64 0 0 23 0 45 0 65-22 0-44 0-65 0 0-20 0-42 0-65-22 0-42 0-64 0 0 23 0 43 0 65-21 0-43 0-65 0 0 22 0 42 0 65 22 0 42 0 65 0 0 22 0 44 0 66-22 0-43 0-65 0 0 20 0 42 0 63 20 0 42 0 65 0 0-21 0-43 0-63 22 0 42 0 64 0 0 20 0 41 0 63 22 0 43 0 65 0 0-22 0-43 0-65 20 0 42 0 64 0 0-22 0-42 0-64z m0 186c-86 0-171 0-258 0 0 87 0 172 0 258 85 0 172 0 258 0 0-86 0-171 0-258z m-370-113c-50 0-98 0-148 0 0-49 0-97 0-147 50 0 98 0 148 0 0 50 0 98 0 147z m-37-110c-24 0-48 0-72 0 0 26 0 50 0 74 24 0 48 0 72 0 0-24 0-48 0-74z m343 101c0-20 0-42 0-64-22 0-43 0-65 0 0-21 0-43 0-65-22 0-42 0-64 0 0 22 0 42 0 65 22 0 42 0 64 1 0 20 0 42 0 63 22 0 43 0 65 0z m9 325c-50 0-98 0-148 0 0-50 0-98 0-148 50 0 98 0 148 0 0 50 0 98 0 148z m-37-111c-24 0-48 0-72 0 0 24 0 48 0 72 24 0 48 0 72 0 0-22 0-46 0-72z m-277 109c-49 0-97 0-147 0 0-48 0-96 0-146 50 0 98 0 147 0 0 50 0 98 0 146z m-38-109c-24 0-48 0-72 0 0 24 0 48 0 74 24 0 48 0 72 0 0-24 0-48 0-74z" horiz-adv-x="1000" />

<glyph glyph-name="phone-1" unicode="&#xe853;" d="M8-23c32-35 69-36 109-42 28-4 49 0 72 0 67 2 117 44 121 111 4 78 4 156 4 235 0 156 0 313 0 470 0 55 24 80 80 80 111 0 219 0 330 0 23 0 40-8 58-23 40-42 82-84 124-124 17-17 26-36 25-61 0-10 0-17 0-27-2-34 0-63 32-86 29-21 36-57 36-92 0-135 0-273 0-408 0-77-59-140-135-140-243-2-484 0-726 0-63 2-113 40-130 107z m856 478c0 61 0 118 0 175-25 0-46 0-67 0-54 0-69 16-69 69 0 23 0 46 0 69-109 0-212 0-317 0-25 0-33-8-33-33 2-84 2-168 0-252 0-25 8-30 31-30 117 2 233 0 350 0 34 2 68 2 105 2z m-241-100c-38 0-38 0-38-32 0-40 0-40 38-42 21 0 36 0 34 28 0 46 2 46-34 46z m-101-36c0 38 0 38-42 38-29 0-31-2-31-36 0-38 0-38 44-38 29 0 29 0 29 36z m-40-174c38 0 38 0 38 33 0 40 0 40-44 42-25 1-31-8-31-31 4-44 2-44 37-44z m139 0c38 0 38 0 38 36 0 37 0 37-44 37-28 0-28 0-28-39-2-34-2-34 34-34z m176 33c0 19 6 40-27 38-46-2-44 0-46-40 0-21 0-37 29-35 42 6 42 4 44 37z m0 141c0 36 0 36-46 36-23 0-27-9-27-28 2-44 0-44 42-44 31 0 31 0 31 36z m-321-313c46 0 46 0 46 40 0 32 0 32-44 32-29 0-27 0-31-46-2-28 17-26 29-26z m183 42c0 15 4 34-26 32-46-2-44 0-46-44 0-23 7-28 30-28 40-2 40-2 42 40z m67-39c84-3 69-5 69 63 0 0 0 2-2 4-21 0-44 0-67 0 0-23 0-44 0-67z m-449 583c0 54-34 96-88 101-30 4-63 6-93 2-58-5-94-46-94-101-2-172-2-344 0-516 0-59 46-101 105-103 17 0 37 0 54 0 72 2 114 42 114 115 0 80 0 162 0 244 0 86 0 174 2 258z m514-29c0 12 0 20 0 29-113 0-225 0-338 0 0-11 0-19 0-29 115 0 227 0 338 0z m0-70c0 9 0 17 0 27-113 0-225 0-338 0 0-10 0-18 0-27 115 0 227 0 338 0z m-137 172c3 30 3 30-25 30-50 0-99 0-149 0-10 0-17-2-27-2 0-11 0-19 0-28 69 0 134 0 201 0z" horiz-adv-x="1000" />

<glyph glyph-name="guest" unicode="&#xe854;" d="M321 336c0-38 19-73 47-94-39-23-65-65-65-114v-49c0-12 9-22 21-22s22 10 22 22v49c0 49 40 89 89 89h3c1 0 3 0 3 0s3 0 4 0h3c49 0 89-40 89-89v-49c0-12 9-22 21-22s22 10 22 22v49c0 49-27 91-66 114 28 22 47 56 47 94 0 66-53 120-120 120-66-1-120-54-120-120z m197 0c0-41-34-75-75-76h-3c-42 1-75 34-75 76 0 43 34 77 76 77 42-1 77-35 77-77z m119-29c0 34-23 64-56 73-11 3-18 15-14 27 3 11 15 18 26 14 51-14 87-61 87-114 0-36-17-70-44-93 37-23 62-64 62-110v-18c0-12-10-21-22-21s-21 9-21 21v18c0 42-30 78-72 87-10 2-17 10-17 20-1 10 5 19 15 21 33 10 56 40 56 75z m233 154l-357 262c-8 6-18 6-25 0l-357-262c-6-4-9-10-9-17v-451c0-12 9-21 21-21h715c12 0 21 9 21 21v451c0 7-4 13-9 17z m-34-446h-672v418l336 247 336-247v-418z" horiz-adv-x="1000" />

<glyph glyph-name="key-1" unicode="&#xe855;" d="M945 412h-541c-25 86-104 149-198 149-114 0-206-92-206-206 0-114 92-207 206-207 96 0 176 65 199 153h191v-106c0-31 25-56 56-56l0 0c30 0 55 25 55 56v106h81v-36c0-30 25-55 55-55l0 0c31 0 56 25 56 55v36h46c30 0 55 25 55 55 0 31-25 56-55 56z m-739-164c-59 0-106 48-106 107 0 59 47 106 106 106s107-47 107-106c0-59-48-107-107-107z" horiz-adv-x="1000" />

<glyph glyph-name="shift" unicode="&#xe856;" d="M738 536l10-19-193-110c0 0-9-26-36-23-29 4-32 29-32 29l-88 92 14 14 92-70c0 0 9 5 18 4 14-1 20-8 20-8l195 91z m-648-125c0 0-18 233 203 373 47 31 131 65 228 66 72 0 153-19 233-69 113-69 229-226 195-441-23-141-117-230-117-230l40-38-168-24 28 163 38-36c0 0 11 9 22 22 11 13 22 30 22 30l-32 24 10 16 34-16c0 0 17 29 28 67 10 35 14 80 14 80l-46 6v21l46 2c0 0-1 39-10 72-11 41-30 77-30 77l-40-20-10 18 38 26c0 0-20 32-44 57-29 29-62 52-62 52l-26-36-16 8 18 40c0 0-34 18-69 28-39 11-80 14-80 14l-4-50h-20l-4 50c0 0-38-1-72-10-41-11-78-30-78-30l20-40-18-10-27 36c0 0-35-25-62-52-27-29-46-61-46-61l36-24-10-16-38 18c0 0-19-36-28-75-10-42-10-88-10-88h-86z m266-132c0 0-5 89 101 75 53-7 61-49 62-79 0-16 0-32 0-32s14-6 10-26c-5-25-24-48-24-48s-3-12-8-23c-5-8-12-16-12-16s12-9 32-18c26-11 64-24 88-50 28-30 27-85 26-87 0-2-2-10-14-12-27-6-78-8-78-8s-7 27-28 42c-14 11-38 19-54 26-23 11-38 21-38 21s5 8 12 22c6 12 16 28 20 44 9 39-6 51-6 51s4 57-18 84c-31 37-71 34-71 34z m-106-33c-22-28-18-85-18-85s-15-12-6-51c4-16 14-32 20-44 7-14 12-22 12-22s-15-10-38-20c-16-8-40-16-54-27-21-15-28-42-28-42s-51 2-78 8c-12 3-14 10-14 12-1 2-2 57 26 87 24 26 62 39 88 50 20 9 32 19 32 19s-7 7-12 16c-5 10-8 22-8 22s-19 23-24 48c-4 20 10 27 10 27s-1 16 0 32c1 30 9 71 62 79 105 14 100-75 100-75s-40 3-70-34z m6-98c3 5-8 53 12 81 22 30 52 29 70 30 107 7 85-111 85-111s10 1 10-16c0-28-24-56-24-56s-2-11-6-20c-5-12-14-22-14-22s22-11 48-23c21-9 44-17 62-32 31-26 36-69 36-69s4-16 0-26c-3-10-14-14-14-14s-28-19-183-20c-46 0-98 2-132 8-15 2-26 5-34 8-11 3-16 6-16 6s-4 2-6 5c-2 3-4 6-4 9-2 14 4 35 4 35s6 40 36 60c31 21 108 51 108 51s-11 12-16 24c-3 8-2 16-2 16s-8 7-16 20c-11 19-20 47-4 56z" horiz-adv-x="1000" />

<glyph glyph-name="EC" unicode="&#xe857;" d="M884 597c-262-2-524-1-786-1-58 0-98-39-98-97 0-102 0-197 0-298 0-58 39-97 98-98 268 0 536 0 804 1 8 0 18 0 26 2 38 10 58 37 72 71 0 117 0 228 0 345-20 55-59 75-116 75z m-642-296c-7-12-18-11-29-5-11 7-23 13-38 22 0-17 0-29 0-42 0-12-3-23-17-24-16 0-19 12-19 25 0 12 0 24 0 40-15-8-27-17-39-21-8-2-18 3-27 5 3 8 3 20 9 25 10 10 23 15 38 24-15 8-28 14-38 23-6 6-6 17-9 26 9 1 19 6 26 4 13-4 25-13 40-21 0 15 0 27 0 38 0 14 1 27 18 27 19 0 18-15 18-27 0-11 0-23 0-38 14 8 26 15 38 21 11 6 22 7 29-5 7-12-1-20-11-27-11-6-22-13-36-21 13-8 25-15 36-22 10-6 18-14 11-27z m209 31c12-7 28-14 17-31-9-17-22-8-34-1-9 5-18 10-31 18 0-19 2-33-1-45-2-8-12-14-18-21-6 7-15 13-17 21-3 13-1 26-1 44-15-8-26-16-39-20-8-3-18 2-27 4 3 8 3 20 9 25 10 10 23 15 37 23-8 6-15 10-20 14-13 9-38 14-25 36 13 22 29 0 44-5 6-3 11-6 21-11 0 16-2 29 1 41 2 9 11 16 17 23 7-7 16-14 18-23 3-11 1-24 1-42 15 8 25 17 37 20 9 2 23 2 28-4 9-10 1-20-9-26-11-7-22-13-37-22 11-7 20-13 29-18z m231-2c12-6 22-15 14-30-8-13-20-8-31-2-10 6-20 11-35 19 0-17 3-30 0-42-3-9-11-20-19-22-14-3-17 10-18 22 0 13 0 25 0 43-14-9-26-15-37-21-11-7-22-8-29 4-7 12 0 21 11 27 11 6 22 13 36 21-11 7-19 12-27 17-12 7-30 14-19 33 11 18 26 4 38-2 8-4 15-8 27-15 0 17-2 30 1 42 2 9 12 16 18 23 6-7 15-14 18-23 3-11 0-24 0-42 15 8 25 17 37 20 9 3 24 2 28-4 9-10 2-20-10-27-11-6-21-12-36-21 13-8 23-14 33-20z m240-29c-4-5-19-6-28-3-11 3-21 11-37 20 0-17 1-30 0-44 0-12-5-24-18-21-7 2-15 13-17 21-3 13-1 26-1 43-15-8-27-14-39-21-11-6-23-7-27 6-2 7 3 19 9 25 10 9 23 14 38 23-14 8-26 15-37 22-11 6-19 16-10 26 5 6 19 6 28 4 11-3 24-12 37-21 0 18 0 31 0 43 0 12 3 23 18 23 16 0 19-11 19-24 0-13 0-25 0-41 15 8 27 17 40 21 8 2 18-3 27-4-3-9-4-20-10-26-10-9-23-15-38-23 15-9 26-16 37-22 12-6 18-17 9-27z" horiz-adv-x="1000" />

<glyph glyph-name="MA" unicode="&#xe858;" d="M843 545l-289-289c-2-1-3-3-3-5l-23-85c0 0 0-1 0-1 0 0 0 0 0-1 0 0 0 0 0-1 0 0 0 0 0-1 0 0 0 0 0-1 0 0 0 0 0 0 0 0 0 0 0 0 1-1 1-1 1-1 0-1 0-1 0-1 0-1 0-1 1-1 0 0 0-1 0-1 0 0 1 0 1 0 0-1 0-1 0-1 1 0 1 0 1-1 0 0 1 0 1 0 0 0 1 0 1 0 0-1 0-1 1-1 0 0 0 0 0 0 0 0 0 0 1 0 0 0 0 0 1 0 0 0 0 0 1 0 0 0 0 0 0 0 1 0 1 0 1 0 1 0 1 0 1 0l85 23c2 0 4 1 5 3l289 289-76 76z m-278-365c1 3 0 6-2 9-2 2-5 3-8 2l13 50 47-47-50-14z m367 302l-76 76 29 29c0 0 52-18 77-76l-30-29z m-894 207c0 48 22 90 84 91 36 0 52 3 85 3 4 0 16 0 22 0 0 0 0 1 0 3 0 14-6 28-5 42 0 13 7 21 18 21 11 0 23-8 24-20 0-5 3-10 3-15 0-12 0-18 0-31h305c0 13 0 29 0 45 0 8 2 15 10 20 7 3 15 3 22-1 7-4 10-11 10-20 0-16 0-32 0-49 2 0 3-1 3-1 36 0 42 0 78 0 50 0 92-38 92-88 0-56 0-112 0-169l-45-41c0 33-2 65-2 97 0 35 0 71 0 106 0 5-1 9-1 14-2 22-21 43-43 43-24 1-48 4-71 4-3 0-4 0-5 0 0 0-2 0-6 0 0-20 0-36 0-52 0-4 0-10 0-14-1-12-10-22-21-22-11 0-20 8-21 20 0 12 0 25 0 37 0 8 0 17 0 24h-305c0-13 0-32 0-47 0-5-4-9-4-14-1-12-12-20-23-21-11 0-17 9-17 21-1 17 4 34 4 50 0 3 0 6 0 11-46 0-66 1-105-1-25 0-41-17-41-43 0-51-1-101-1-151 0-198-1-395-1-593 0-9 0-17 1-26 2-15 15-28 31-29 19-2 38-2 57-2 209 0 317 0 525 0 30 0 46 15 46 46 0 108 3 215 3 323l45 41c0-121 0-242 0-363 0-49-42-88-91-88-223 0-347 0-570 0-43 0-81 32-88 74-1 9-1 18-1 27 0 246 0 492-1 738z m137-618c32 1 64 0 96 0 31 0 63 1 94 0 5 0 10 0 14-2 8-4 12-14 10-23-2-10-10-16-22-16-64 0-128 0-192 0-15 0-24 8-25 20 0 14 9 21 25 21z m270 443c-9 9-8 20 0 29 8 8 20 8 29 0 13-13 26-26 39-40 20 20 40 39 59 57 21 21 43 42 64 63 10 9 22 9 31 0 8-9 8-21-2-30-50-49-101-98-152-147-23 23-46 45-68 68z m-270-214c32 0 64 0 96 0 31 0 63 0 94 0 5 0 10 0 14-2 8-4 12-14 10-23-2-10-10-16-22-16-64 0-128 0-192 0-15 0-24 8-25 20 0 14 9 21 25 21z m215 209c0-12-9-21-23-21-65 0-129 0-193 0-15 0-23 8-24 20 0 13 9 21 24 21 32 0 64 0 96 0 32 0 64 0 96 0 14 0 24-8 24-20z" horiz-adv-x="1000" />

<glyph glyph-name="MP" unicode="&#xe859;" d="M546 531c0 5-2 11-6 15l-192 177c-6 6-15 7-23 4s-13-11-13-20v-307l-154 146c-9 8-23 7-31-1-8-9-7-23 1-31l174-164-174-165c-8-8-9-22-1-30 8-9 22-9 31-1l154 146v-307c0-9 6-16 13-20 3-1 6-2 9-2 5 0 10 2 15 6l191 177c4 4 6 9 6 16s-2 11-6 15l-175 165 174 165c5 4 7 9 7 16z m-53-361l-138-128v259l138-131z m-138 230v258l138-128-138-130z m237-159c-11 0-21 9-21 21 0 12 10 21 21 21 37 0 67 30 67 67 0 37-30 67-67 67-11 0-21 9-21 21 0 12 10 22 21 22 61 0 110-49 110-110 0-60-49-109-110-109z m82-71c-3-2-6-2-9-2-8 0-16 4-20 12-4 11 0 23 11 29 55 25 91 80 91 141 0 61-36 116-91 141-11 5-16 18-11 29 5 11 18 16 29 11 71-32 117-103 117-181 0-78-46-148-117-180z m205 180c0-100-52-192-138-244-3-2-7-4-10-4-8 0-15 4-19 11-6 10-2 23 8 29 72 45 116 123 116 209 0 85-44 163-116 207-10 6-14 20-8 30 7 10 20 13 30 7 85-53 137-144 137-245z" horiz-adv-x="1000" />

<glyph glyph-name="PE" unicode="&#xe85a;" d="M844 712c0-34 0-67 0-94-26 0-93 0-120 0 0 27 0 27 0 60-20 0-20 0-46 0 0-33 0-31 0-62 0 0-1-1-1-1-76 0-149 0-225 0-5 0-5 9-6 13-18 75-83 128-160 131-91 3-169-67-175-159-5-91 61-169 151-179 84-10 163 45 183 127 2 8 5 16 12 16 142-1 284-1 426-1 3 0 8 1 8 1 0 54 0 94 0 148-20 0-27 0-47 0z m-563-245c-67 0-123 54-123 121 0 68 54 124 123 124 67 0 122-55 122-123 0-67-55-122-122-122z m536-161c-106 1-211 0-316 0-105 0-209 0-314 0-37 1-72-10-103-30-62-42-94-116-80-184 18-90 94-152 186-152 207 0 414 0 621 0 10 0 20 1 30 2 85 10 158 90 159 176 3 102-81 188-183 188z m-610-249c-36 0-66 30-66 66 0 37 30 67 66 67s66-30 66-67c0-36-29-66-66-66z m196 0c-37 0-66 30-66 66 0 37 29 67 66 67s66-30 66-67c0-36-30-66-66-66z m195 0c-36 0-66 30-66 66 0 37 30 67 66 67 37 0 66-30 66-67 0-36-29-66-66-66z m196 0c-37 0-66 30-66 66 0 37 29 67 66 67s66-30 66-67c0-36-30-66-66-66z" horiz-adv-x="1000" />

<glyph glyph-name="PI" unicode="&#xe85b;" d="M615 633c-10 0-20 0-31 0 0 14 0 28 0 41-1 47-41 89-88 92-49 2-94-40-96-90 0-14 0-28 0-43-9 0-18 0-27 0-18 0-23-6-23-24 0-62 0-123 0-185 0-19 5-24 24-24 41 0 81 0 121 0 39 0 77 0 115 0 18 0 23 5 23 22 0 1 0 1 0 2 0 63 0 126 0 189 0 12-6 19-18 20z m-66-1c-38 0-76 0-116 0 1 20 0 40 3 59 5 27 30 43 60 41 28-1 50-21 53-48 2-17 0-32 0-52z m267-332c-105 0-210 0-316 0-104 0-209 0-313 0-38 0-72-10-103-31-62-42-95-116-81-184 19-90 94-151 186-151 207 0 415 0 622 0 10 0 20 0 29 2 86 10 158 89 160 175 2 102-82 188-184 189z m-609-249c-37 0-66 29-66 66 0 36 29 66 66 66s66-30 66-66c0-37-30-66-66-66z m195 0c-36 0-66 29-66 66 0 36 30 66 66 66s66-30 66-66c0-37-29-66-66-66z m196 0c-37 0-66 29-66 66 0 36 29 66 66 66 36 0 66-30 66-66 0-37-30-66-66-66z m195 0c-36 0-66 29-66 66 0 36 30 66 66 66s67-30 67-66c0-37-30-66-67-66z" horiz-adv-x="1000" />

<glyph glyph-name="PP-1" unicode="&#xe85c;" d="M706 850h-412c-41 0-74-33-74-74v-852c0-41 33-74 74-74h412c41 0 74 33 74 74v852c0 41-33 74-74 74z m-344-488c0-3-4-6-7-8-9-5-19-10-29-15 8-10 16-21 23-31 5-6 4-14-3-17-6-2-10 0-14 5-3 5-7 10-11 14-3 5-7 10-11 15-8-10-15-20-22-29-4-6-9-7-14-4-6 3-8 10-3 16 7 10 15 20 23 31-10 5-19 10-29 14-7 4-9 10-6 16 3 5 9 7 16 3 8-4 16-8 25-12 0 12 0 23 0 33 0 8 4 13 10 13 6 0 11-5 11-12 0-11 0-22 0-34 9 5 17 9 26 13 3 1 8 0 12-1 2-2 4-7 3-10z m78-42c-1 2-2 3-4 5-7-10-14-19-21-29-5-6-11-8-17-3-5 3-5 10 0 16 7 10 15 20 22 30-9 5-19 9-28 15-3 1-7 5-8 8 0 3 1 8 4 9 3 2 8 3 11 2 9-4 17-8 27-13 0 8 0 16 0 23 0 5 0 9 0 13 1 6 5 10 11 10 5 0 10-4 10-10 0-9 0-17 0-25 0-3 0-7 0-11 6 4 14 7 20 10 2 1 5 2 7 3 6 3 12 1 14-5 3-5 0-11-5-14-5-2-10-5-15-7-5-3-10-5-15-8 7-10 15-20 22-31 2-2 4-6 3-9-1-3-5-7-8-8-3-1-8 1-10 4-7 8-13 17-20 25z m96-407c-3-14-15-26-29-28-26-5-48 17-43 43 2 14 14 26 28 28 26 5 48-17 44-43z m73 441c-2-1-4-2-6-3-8-4-16-8-24-12 8-10 15-20 22-30 5-6 5-13 0-17-6-4-11-2-17 5-7 9-14 18-21 28-7-8-13-17-19-25-1-2-3-4-4-5-4-5-10-6-15-3-5 4-6 10-2 15 6 9 13 18 20 26 1 2 2 4 4 6-10 5-20 10-29 15-7 3-10 9-7 14 3 6 9 8 16 4 9-4 13-8 26-12 0 10 0 19 0 28 0 2 0 5 0 7 0 6 4 11 10 11 6 0 10-4 10-11 1-11 1-21 1-32 0 0 0-1 0-3 9 5 17 9 25 13 7 3 13 1 15-5 3-5 1-11-5-14z m126 0c-10-5-19-10-30-15 7-9 13-17 20-26 1-2 3-4 4-6 4-5 3-11-2-15-5-3-11-2-15 3-6 8-13 17-19 26-1 1-3 2-4 4-8-10-15-20-22-30-5-6-12-6-17-1-4 4-4 9 0 14 7 9 13 18 20 27 1 1 2 2 3 4-10 5-19 10-29 15-3 1-6 4-7 7 0 3 1 8 3 10 3 4 8 4 12 2 9-4 17-8 27-13 0 12 0 23 0 35 0 4 1 9 6 10 3 1 8 0 10-1 3-2 4-7 4-10 1-11 1-22 1-34 9 4 17 9 25 13 6 3 12 1 15-3 4-5 2-12-5-16z" horiz-adv-x="1000" />

<glyph glyph-name="TI-1" unicode="&#xe85d;" d="M311-115c-4 3-11 6-11 9 0 7 1 15 5 21 21 28 44 54 63 83 14 21 22 45 34 67 3 6 14 7 21 11 2-7 6-16 4-21-23-61-58-114-102-160-4-4-8-7-14-10z m445 487c-18 133-114 223-246 232-132 9-259-100-265-232-2-55 5-111 8-166 1-4 8-10 12-11 4 0 11 5 14 9 2 6 3 13 2 20-3 44-9 88-9 131 0 112 89 209 198 220 121 12 225-58 251-171 21-92 24-185 9-278-1-8 5-23 10-25 15-5 17 8 18 19 4 39 7 78 11 119-4 44-7 89-13 133z m-257 356c189-2 348-141 376-333 2-11 14-30-7-34-23-4-18 18-20 31-25 156-128 269-279 300-176 36-365-68-411-266-1-5-1-10-3-13-5-6-12-11-18-16-3 8-10 16-9 23 27 155 163 283 319 302 17 2 35 4 52 6z m1 57c16 0 33 2 50-1 7-1 13-11 19-17-8-3-16-11-23-10-199 21-382-99-440-288-20-65-22-131-10-198 8-39 1-75-20-107-4-5-7-12-12-14-6-3-13-2-20-3 0 7-4 16 0 20 31 35 28 75 22 118-34 226 117 444 339 491 31 7 63 9 94 13 0-1 1-3 1-4z m87-545c-3-136-44-259-123-368-4-6-8-13-14-16-4-2-13-2-18 1-3 2-3 11-1 16 3 7 9 14 14 20 98 139 131 292 101 459-5 30-25 47-52 43-31-5-45-23-39-57 10-63 13-125 0-188-2-11-1-26-17-24-20 2-12 18-10 29 11 60 9 119-2 179-8 42 21 81 62 88 38 7 79-22 85-62 7-40 10-80 14-120z m364 7c-3-44-4-80-8-115-1-9-10-24-16-25-16 0-13 14-11 26 11 110 8 219-22 326-36 131-120 220-245 272-7 3-16 4-21 8-6 4-8 12-12 18 7 3 16 9 22 7 59-19 110-50 156-91 87-79 132-178 145-293 6-47 9-94 12-133z m-456 297c4 0 8 1 11 0 8-5 15-10 22-15-7-4-14-11-21-13-28-6-58-7-83-19-70-31-102-104-89-179 24-138-13-259-116-356-6-6-22-10-26-7-11 11 0 20 8 28 94 91 130 201 105 329-22 117 70 230 189 232z m212-284c-2-147-32-266-93-378-2-4-4-10-8-13-6-5-13-7-20-10-1 8-6 17-3 23 17 39 38 77 53 116 46 129 56 261 25 395-10 42-35 73-71 97-9 5-24 12-12 25 4 4 21 2 29-3 54-35 81-87 89-149 6-41 9-82 11-103z m20 529c-4-21-15-19-27-15-26 10-51 23-78 29-198 46-363-8-494-165-2-3-4-7-7-8-7-3-14-5-21-7-1 8-4 19 0 24 26 29 50 61 81 85 161 127 338 149 527 70 7-3 13-9 19-13z m103-550c-2-98-19-194-51-286-2-6-3-13-7-17-5-5-12-8-19-12-2 8-8 16-6 23 14 57 34 114 43 172 17 105 14 211-15 314-8 28-24 54-38 80-4 9-12 19 1 24 5 3 18-4 23-10 30-41 47-88 54-138 7-50 10-100 15-150z m-713-205c-5 4-12 7-13 10-1 6 1 14 5 18 12 14 26 26 37 40 41 55 55 116 42 183-21 119 14 220 103 302 6 6 22 9 26 6 13-12 0-19-8-27-80-74-113-164-93-273 17-94-10-174-77-241-7-7-14-12-22-18z m409 207c-3-132-45-250-126-353-8-10-18-32-35-18-16 13 5 25 13 35 98 126 136 267 110 426-1 4-3 9-1 13 2 6 7 11 10 17 6-5 16-9 17-14 5-35 8-71 12-106z m473 123c0-6 2-13 0-18-4-8-10-15-15-22-4 7-11 14-12 21-7 41-8 83-18 124-26 107-87 192-175 259-6 5-14 20-11 24 8 14 19 5 28-2 114-86 180-200 199-341 2-15 3-30 5-45 0 0-1 0-1 0z m-501 120c63 0 123-47 134-109 8-40 11-81 14-122 0-8-8-23-14-24-15-3-13 12-14 22-4 39-7 78-13 116-9 52-49 86-98 89-51 3-95-27-111-77-3-11-7-24-20-17-5 2-8 18-6 26 16 55 71 96 128 96z m-123-247c-1 24-3 40-2 56 0 6 7 11 12 17 5-5 14-10 14-16 15-144-28-267-130-369-5-5-17-3-26-4 3 8 3 19 8 24 64 65 105 141 119 232 3 22 4 45 5 60z m-311 348c18-6 18-16 13-28-12-29-25-58-33-87-20-72-21-144-6-217 2-11 15-29-7-34-20-3-18 17-21 29-22 110-8 216 39 317 4 8 11 14 15 20z m649-6c-13-4-20-8-27-7-6 0-12 7-17 11-85 59-175 70-272 36-12-4-29-18-36 0-8 20 14 22 26 26 109 40 210 23 304-44 6-4 11-11 22-22z m-71-414c-12-92-38-175-80-252-9-17-19-34-30-49-5-6-18-14-24-12-13 6-6 17 0 27 51 76 85 160 100 251 2 11 3 23 6 34 2 5 10 14 14 13 6-1 11-9 14-12z m253 72c-11-74-22-147-34-221 0-3-1-8-3-10-6-5-12-9-18-13-3 7-9 15-9 21 9 61 20 121 27 182 4 29 0 59 1 89 1 8 8 17 12 25 6-7 15-14 16-22 2-17 1-34 1-50 2-1 5-1 7-1z m-735 9c-2-64-22-110-61-148-7-7-15-18-27-7-12 12-1 19 6 26 47 44 61 98 50 160-4 18-6 37-6 55 0 5 7 12 13 14 3 1 13-6 13-10 5-33 9-67 12-90z m101-117c-2-4-3-9-5-13-19-45-47-85-85-116-6-5-17-3-25-4 2 8 2 19 7 24 34 32 61 68 79 110 3 6 11 12 18 14 6 1 13-4 20-6-3-3-6-6-9-9z m468-80c-5 0-15-6-17-11-17-45-34-90-50-136-2-5 3-13 5-20 7 3 17 3 19 8 20 46 38 93 57 142-5 7-9 16-14 17z" horiz-adv-x="1000" />

<glyph glyph-name="WL" unicode="&#xe85e;" d="M297 146c0 0 0 0 0 0-91 0-167 71-175 161-7 91 56 171 144 187 19 86 91 153 179 166 56 8 113-7 158-41 40-31 68-74 79-123h21c97 0 175-78 175-175 0-46-18-90-51-123s-77-52-124-52c0 0 0 0 0 0-12 0-21 10-21 22 0 12 9 21 21 21 36 0 69 14 94 39 24 25 38 59 38 94 0 73-59 132-132 132h-39c-10 0-19 7-21 18-6 46-30 86-66 113-37 27-82 39-127 32-75-10-135-70-145-145-2-10-10-18-20-19-72-6-126-70-120-142 5-69 63-122 132-122 12 0 21-10 21-22 0-12-9-21-21-21z m216 28l112 83c9 7 11 21 4 30-7 10-20 12-30 4l-99-73-99 73c-10 8-23 6-30-4-7-9-5-23 4-30l112-83c4-3 8-4 13-4s9 1 13 4z m0-131l112 83c9 7 11 20 4 30-7 9-20 11-30 4l-99-73-99 73c-10 7-23 5-30-4-7-10-5-23 4-30l112-83c4-3 8-4 13-4s9 1 13 4z" horiz-adv-x="1000" />

<glyph glyph-name="TI" unicode="&#xe85f;" d="M53 232c2-11-4-21-14-23-10-3-20 3-23 13-5 20-9 41-12 62-3 21-4 43-4 64 0 68 14 132 38 191 26 62 63 117 109 163 8 7 20 7 27 0 7-8 7-20 0-27-43-43-78-93-101-150-23-55-35-114-35-177 0-21 1-40 3-59 3-19 7-39 12-57l0 0z m178 491c-8-6-20-4-26 4-6 9-4 21 5 27 0 0 2 2 4 3l0 0c3 2 6 4 8 6 41 27 85 49 133 63 45 14 94 21 145 21 134 0 256-53 346-140 90-87 148-207 153-341 0-1 0-5 0-9l0-1c1-6 1-13 1-16 0-10-8-19-19-19-10 0-19 9-19 19 0 3 0 9 0 14l0 0c-1 4-1 7-1 10-4 124-57 236-141 316-83 80-196 130-320 130-47 0-92-7-134-20-44-14-86-33-123-58 0 0-3-2-6-4l0 0 0 0c-2-2-4-4-6-5l0 0z m-133-637c85 84 77 140 67 208-3 19-6 39-7 59 0 11-9 19-19 19-10-1-19-9-18-20 1-23 4-44 7-63 8-58 15-106-56-176-7-8-8-20 0-27 7-7 19-8 26 0l0 0z m65 330c16 79 59 148 120 197 59 49 134 78 217 78 65 0 125-19 177-50 54-32 98-79 127-135 28-54 44-136 48-226 3-90-6-187-29-270-3-10 3-20 13-23 10-3 20 3 23 13 24 86 34 188 30 281-4 96-21 184-52 242-32 62-81 114-140 150-58 35-125 55-197 55-92 0-176-32-241-86-67-54-115-131-133-219-2-10 5-20 15-22 11-2 20 4 22 15l0 0z m10-421c53 46 83 91 100 133 17 43 21 82 19 116-1 26-3 47-6 66-6 49-10 87 17 145 19 35 48 65 82 85 34 20 73 32 115 32 46 0 89-14 124-38 37-25 66-60 83-101 9-24 16-55 21-89 5-41 7-86 6-126 0-10 9-19 19-19 10 0 19 8 19 19 1 41-1 88-7 130-5 38-12 72-23 99-20 48-54 89-97 118-42 28-92 44-145 44-49 0-95-13-134-36-41-25-74-59-96-101l-1-1c-32-68-27-110-20-165 2-19 5-40 6-63 1-30-2-64-17-101-15-37-42-77-89-119-8-6-9-18-2-26 6-8 18-9 26-2l0 0z m556 153c1 10 11 18 21 16 10-1 18-10 16-21l0-4c-9-65-19-147-78-247-5-9-17-12-26-6s-12 16-7 25c55 94 65 171 73 232l1 5 0 0z m-356 101c1 11 10 18 20 17 11-1 18-10 17-21 0-1 0-3 0-7-1-42-3-201-141-319-8-7-20-6-27 2-6 8-5 20 2 27 126 106 128 252 128 291 1 5 1 8 1 10l0 0z m28 78c-1 4-2 8-3 12 0 4 0 8 0 13 0 29 11 54 29 72 18 18 43 29 73 29 31 0 54-11 70-28 17-17 28-42 35-70 16-65 12-158-8-248-19-87-52-171-94-224-7-8-6-20 2-26 8-7 20-5 27 3 47 57 82 147 102 239 21 95 25 195 8 265-9 34-23 65-45 88-23 23-55 38-97 38-40 0-75-15-100-40-25-24-40-59-40-98 0-6 0-11 1-17 1-5 2-11 3-17 2-10 12-16 23-14 10 3 16 13 14 23l0 0z m84 20c11-86 10-165-9-239-18-74-54-144-115-212-7-7-6-19 2-26 8-7 20-6 27 1 64 73 103 148 123 228 20 79 20 162 9 252-1 11-11 18-21 17-10-2-18-11-16-21z" horiz-adv-x="1000" />

<glyph glyph-name="PP" unicode="&#xe860;" d="M706 850h-412c-41 0-74-33-74-74v-852c0-41 33-74 74-74h412c41 0 74 33 74 74v852c0 41-33 74-74 74z m-170-937c-3-14-15-26-29-28-26-5-48 17-43 43 2 14 14 26 28 28 26 5 48-17 44-43z m96 596c-1-9-9-17-17-22-24-13-48-24-74-37 20-27 40-52 59-78 12-17 8-36-9-43-15-6-25 0-34 11-9 12-19 25-28 37-9 12-18 24-28 38-20-26-38-51-57-75-10-14-23-17-35-10-16 8-19 25-8 41 19 26 38 51 59 79-25 12-49 24-72 36-19 10-25 24-17 39 7 14 23 18 40 9 21-10 41-20 63-32 0 30 0 58 0 85 0 20 10 32 26 32 16 0 27-12 27-31 1-28 0-55 0-85 24 11 44 23 66 32 9 3 22 2 30-3 6-3 11-16 9-23z" horiz-adv-x="1000" />

<glyph glyph-name="web" unicode="&#xe861;" d="M518 840c16-2 33-4 50-6 56-9 111-25 161-53 78-42 139-100 187-174 19-27 42-81 48-107-25 0-50 0-75 0-2 0-6 5-6 9-11 21-21 42-32 63-2 4-6 6-13 6-18 0-39 0-58 0-4 0-7 0-11 0 4-13 7-25 11-38 2-12 6-25 8-38-25 0-50 0-75 0-7 21-13 44-19 65-2 9-7 11-13 11-119 0-239 0-359 0-8 0-10-2-12-11-6-21-13-42-19-65-25 0-50 0-76 0 7 26 13 49 19 76-19 0-35 0-54 0-2 0-4 0-4 0-17 4-26-4-32-19-8-17-17-34-25-50-2-2-6-7-8-7-24 0-49 0-74 0 0 5 2 7 2 9 38 109 105 193 204 256 63 40 132 65 205 73 13 2 26 2 38 4 8-4 21-4 32-4z m136-189c-25 42-55 78-97 99-37 19-77 19-115 0-36-19-61-46-84-80-4-6-8-12-12-19 104 0 205 0 308 0z m-436 2c0-2 0-2 2-4 12 0 23 0 35 0 7 0 9 2 11 7 8 14 17 29 23 44 0 2 2 4 2 6l-2 2c-25-19-48-36-71-55z m748-457c-60-189-241-340-467-340s-407 153-466 340c6 0 10 0 17 0 19 0 35 0 54 0 7 0 9-2 11-8 10-21 21-42 31-63 2-4 7-6 11-6 19 0 40 0 58 0 5 0 9 0 13 0-6 25-13 50-19 75 27 0 53 0 78 0 6-23 12-44 19-67 2-6 4-8 10-8 120 0 241 0 361 0 6 0 10 2 10 8 7 23 13 44 19 67 26 0 51 0 78 0-6-25-13-48-19-75 6 0 15 0 21 0 19 0 36 0 55 0 2 0 6 2 6 4 10 21 23 42 33 63 3 2 7 6 9 6 29 4 52 4 77 4z m-312-151c-103 0-206 0-306 0 0-2 0-2 0-2 23-38 48-71 88-92 29-17 61-24 94-15 59 17 92 59 124 109z m-365-57l0 0c-6 19-17 36-25 53 0 2-5 4-5 4-12 0-27 0-39 0 0-2-3-2-3-4 24-17 47-34 72-53z m119 428c-2 7-6 11-12 11-13 0-23 0-36 0-8-2-12-6-8-15 19-44 38-90 56-136 2-7 7-9 13-9 8 0 15 0 23 0 8 0 15 5 19 13 8 17 15 31 23 48 4 11 11 19 15 32 10-23 19-42 27-63 17-38 6-32 48-32h2c7 0 11 2 13 9 21 46 40 90 61 136 4 9 0 15-9 15-10 0-21 0-31 0-8 0-13-2-15-11-8-23-19-46-27-69 0-4-2-8-4-12-2 2-2 2-2 2-11 21-19 42-28 63-14 33-4 29-44 29-8 0-14-2-17-11-8-18-16-37-25-56-4-9-8-19-12-30-11 32-21 59-30 86z m-241-65c11-25 21-48 32-73 4-6 8-11 17-11 8 0 16-2 25 0 4 3 10 5 12 9 21 46 40 92 61 138 4 9 0 15-8 15-11 0-21 0-32 0-8 0-12-2-14-10-11-24-19-49-30-74-2-4-2-6-4-10-2 4-2 8-4 10-11 23-21 48-32 74-2 6-6 10-14 10-5 0-7 0-11 0-17 4-25-4-31-21-9-25-21-48-32-75-2 4-2 6-4 10-11 23-19 48-27 73-3 7-7 11-13 11-13 0-23 0-36 0-8-2-12-6-8-15 19-44 38-90 56-136 3-6 7-9 13-9 8 0 17 0 25 0 9-2 13 3 17 11 13 27 25 54 38 82 2-4 4-7 4-9z m692-52c19-38 7-32 51-32h2c4 3 10 5 12 9 21 46 40 92 61 138 4 9 0 15-10 15-9 0-17 0-25 0-15 0-15 0-21-15-11-25-21-52-32-79-2 4-2 8-4 10-6 19-15 38-23 57-15 33-7 29-44 29-9 0-13-2-17-10-11-26-21-51-32-76 0-2-2-6-4-10-2 6-2 8-4 12-8 23-17 46-25 72-2 6-7 10-15 10-10 0-19 0-29 0-13 0-15-6-11-17 19-44 36-90 55-134 2-6 6-11 14-11s19 0 28 0c6 0 10 3 12 9 4 8 9 17 13 25 8 19 17 38 27 59 11-21 19-42 21-61z" horiz-adv-x="1000" />

<glyph glyph-name="eye-off" unicode="&#xe862;" d="M310 105l43 79q-48 35-76 88t-27 114q0 67 34 125-128-65-213-197 94-144 239-209z m217 424q0 11-8 19t-19 7q-70 0-120-50t-50-119q0-11 8-19t19-8 19 8 8 19q0 48 34 82t82 34q11 0 19 8t8 19z m202 106q0-4 0-5-59-105-176-316t-176-316l-28-50q-5-9-15-9-7 0-75 39-9 6-9 16 0 7 25 49-80 36-147 96t-117 137q-11 17-11 38t11 39q86 131 212 207t277 76q50 0 100-10l31 54q5 9 15 9 3 0 10-3t18-9 18-10 18-10 10-7q9-5 9-15z m21-249q0-78-44-142t-117-91l157 280q4-25 4-47z m250-72q0-19-11-38-22-36-61-81-84-96-194-149t-234-53l41 74q119 10 219 76t169 171q-65 100-158 164l35 63q53-36 102-85t81-103q11-19 11-39z" horiz-adv-x="1000" />

<glyph glyph-name="cloud-1" unicode="&#xe863;" d="M760 494q100 0 170-68t70-166-70-166-170-68l-578 0q-74 0-128 52t-54 124q0 74 53 126t129 52q2 0 10-1t10-1q-2 12-2 38 0 108 78 184t188 76q90 0 160-52t94-134q28 4 40 4z" horiz-adv-x="1000" />

<glyph glyph-name="dock" unicode="&#xe864;" d="M916 307l-21 224c-1 54-47 98-103 98h-111c-15 0-28-12-28-28v-316-34-123h-389c-11 0-21-7-26-17-16 10-36 17-57 17-23 0-45-8-62-20-4 11-14 20-27 20h-59c-15 0-28-13-28-28 0-16 13-28 28-28h54c-8-14-12-30-12-47 0-57 48-103 106-103s106 46 106 103c0 17-5 33-12 47h378v-30c0-15 12-28 28-28h38c5-52 50-92 105-92 54 0 99 40 105 92h38c16 0 28 13 28 28v161c0 49-33 90-79 104z m-735-329c-27 0-50 21-50 47 0 26 23 47 50 47s50-21 50-47c0-26-23-47-50-47z m658 551c0-1 0-2 0-3l21-213h-151v260h83c26 0 47-20 47-44z m-15-551c-27 0-50 21-50 47 0 26 23 47 50 47 27 0 50-21 50-47 0-26-23-47-50-47z m115 92h-20c-17 34-53 58-95 58-42 0-78-24-95-58h-20v181 6h173c31 0 57-25 57-54v-133z m-906 133h523c15 0 28 13 28 28v519c0 15-13 28-28 28h-523c-15 0-28-13-28-28v-519c0-15 13-28 28-28z m28 519h467v-463h-467v463z" horiz-adv-x="1000" />

<glyph glyph-name="location-check" unicode="&#xe865;" d="M500 709c-133 0-241-108-241-241 0-133 108-241 241-241 133 0 241 108 241 241 0 133-108 241-241 241z m-54-374c-4-4-10-3-14 0-35 39-71 77-106 115-4 4-3 10 0 13 13 12 26 24 39 36 4 4 10 3 13 0 19-21 38-41 57-62 4-3 10-4 14 0 58 55 117 109 175 164 4 3 10 3 14-1 12-13 24-26 36-39 4-4 4-10 0-13-76-71-152-142-228-213z m54 481c26 0 53-3 79-9 65-14 123-47 168-94 46-48 74-105 83-167 9-61-3-152-29-216-47-120-117-209-198-312l-10-13c-36-46-73-90-93-111-26 24-67 72-107 125-85 112-158 213-200 327-44 117-32 245 32 333 62 86 164 137 275 137m0 34c-120 0-234-55-303-151-76-105-80-248-36-365 45-122 126-232 205-336 45-59 106-131 133-148 13 0 85 87 121 134 86 110 162 204 213 333 26 66 41 163 31 234-20 141-133 257-277 289-29 7-58 10-87 10l0 0z" horiz-adv-x="1000" />

<glyph glyph-name="invitation" unicode="&#xe866;" d="M963 457h-46l-90 79v256c0 29-20 58-48 58h-551c-28 0-55-29-55-58v-256l-82-79h-47c-22 0-44-24-44-46v-523c0-22 22-38 44-38h459 1 459c23 0 37 16 37 38v523c0 22-14 46-37 46z m-80-23l-56-55v111l56-56z m-655 383h551c10 0 21-14 21-25v-445l-269-261c-8-8-17-12-27-12-10 0-21 4-28 12l-269 260v446c0 11 11 25 21 25z m-55-439l-57 55 57 57v-112z m794-490c0-4 0-5-4-5h-459-1-459c-4 0-11 1-11 5v523c0 4 7 12 11 12h43l367-359c13-13 30-21 49-22 0 0 0 0 1 0 0 0 0-1 1-1 18 1 36 11 49 24l367 358h42c4 0 4-8 4-12v-523z m-612 555h0c6 0 11 4 12 11 0 1 0 2 0 4l0 1c1 16 4 32 11 47 22 49 68 79 120 79 1 0 0 0 2 0 2 0 1 0 1 0 52 0 99-30 121-79 7-15 11-31 11-48l0-1c0-1 0-2 0-3 1-7 6-11 12-11h0c4 0 7 1 9 3 2 3 3 5 3 9l0 4c-1 7-1 13-2 20-9 56-51 104-104 122 32 22 46 62 35 99-11 37-47 63-85 63 0 0-1 0-1 0s-1 0-1 0c-39 0-74-26-85-63-11-37 3-77 35-99-53-18-94-66-104-122-1-7-1-14-2-20l0-5c0-3 1-5 3-8 2-2 5-3 9-3z m79 231c0 35 29 63 65 63 0 0 1 0 1 0s1 0 1 0c36 0 65-28 65-63s-29-64-65-64c0 0-1 0-1 0s-1 0-1 0c-36 0-65 28-65 64z m233-278c0-7-6-13-13-13h-308c-7 0-13 6-13 13v1c0 7 6 13 13 13h308c7 0 13-6 13-13v-1z m0-60c0-7-6-13-13-13h-308c-7 0-13 6-13 13v1c0 7 6 13 13 13h308c7 0 13-6 13-13v-1z" horiz-adv-x="1000" />

<glyph glyph-name="bag" unicode="&#xe867;" d="M1000 582c0 41-29 70-70 70-286 1-572 1-858 0-43 0-71-29-71-72 0-203-1-407 0-610 0-45 28-73 74-73l662 0c63 0 126 0 189 0 45 0 74 28 74 72 1 204 1 408 0 613z m-46-614c0-17-9-25-28-25l-231 0-358-1-208-2h-52c-23 0-29 10-29 33v438c8-11 16-20 24-30 33-35 68-55 106-60 10-1 20-2 29-2l18-1h42l271 1c86 0 172 0 258 0 45 0 83 15 114 44 14 14 27 28 40 43 1 1 2 2 4 4 0-147 0-294 0-442z m-9 517c-17-31-39-66-72-92-22-18-47-27-75-27-96 1-192 1-288 1-103 0-206 0-309-1-26 0-50 9-71 25-32 25-58 60-82 109 0 2 0 3 0 5l0 15c-1 21-1 43 0 64 0 14 9 22 25 22 26 0 53 0 80 0l591 0 180 0c12 0 19-2 23-7 5-4 7-11 7-22 0-6 0-12-1-17 0-14 0-27 1-41 0-12-2-22-9-34z m-282 184l0 0c-14 0-23 10-23 26 0 16 0 32 0 48l0 13h-287l0-52c0-4 0-7 0-10-1-16-11-26-25-25-13 0-22 11-22 25 0 22 0 45 0 67 0 27 16 42 43 42 37 0 75 0 113 0l100 0 54 0c10 0 19 0 28 0 27 0 42-15 43-42 0-22 0-44 0-66 0-16-10-26-24-26z m-167-284c-26 0-49 23-49 50-1 13 4 25 14 35 9 9 22 15 35 15 14 0 26-5 36-15 9-9 14-22 14-35 0-27-22-49-49-50l-1 0z" horiz-adv-x="1000" />

<glyph glyph-name="key" unicode="&#xe868;" d="M793-41c-8 0-17 4-22 11-10 11-8 29 4 39 12 10 24 20 35 31 11 11 21 22 31 34 10 11 27 13 39 4 12-10 14-27 4-39-10-13-22-26-34-38-12-13-25-25-39-36-6-4-12-6-18-6z m-119-72l265-29c14-2 29 4 39 14 11 10 15 25 14 39l-30 260c22 57 33 117 33 179 0 273-222 495-495 495s-495-222-495-495 222-495 495-495c60 0 118 11 174 32z m262 18l0 0 0 0z m2 445c0-57-10-112-31-164-2-5-3-10-2-14l30-257-261 28c-5 1-10 0-13-2-51-19-106-30-161-30-242 0-439 197-439 439s196 439 438 439 439-197 439-439z m-251-5c0 16-13 28-28 28h-319c-16 0-28-12-28-28s13-28 28-28h319c15 0 28 13 28 28z m0-100c0 15-13 28-28 28s-28-13-28-28v-54h-263v54c0 15-12 28-28 28s-28-13-28-28v-82c0-2 0-3 1-4 2-14 13-24 27-24h319c14 0 25 10 27 24 0 1 1 2 1 4v82z m-375 200c0-15 13-28 28-28s28 13 28 28v55h263v-55c0-15 12-28 28-28s28 13 28 28v83c0 1 0 3-1 4-2 14-13 24-27 24h-319c-14 0-25-10-27-24 0-1-1-3-1-4v-83z" horiz-adv-x="1000" />

<glyph glyph-name="lock-group" unicode="&#xe869;" d="M504 448c111 0 221 1 332 0 64 0 94-28 94-92 1-139 1-277 0-415-1-74-16-90-89-90-228-1-456-1-684 0-61 0-86 25-87 85-1 141-1 282 0 423 1 58 32 89 90 89 115 1 230 0 344 0z m3-553c45 0 88-1 135 1 31 1 45 17 47 46 7 69-29 111-108 128-49 10-55 25-23 62 24 28 39 58 44 94 7 57-36 109-91 110-57 2-97-39-98-98 0-40 15-74 39-104 34-42 30-53-22-65-31-6-58-17-80-41-30-31-29-70-19-106 6-21 21-26 37-27 12-1 62 0 77 0 31 0 62 0 62 0z m99 201c43-20 73-42 98-72 20-23 51-17 77-7 18 6 15 26 12 42-5 32-30 45-57 52-29 7-35 17-15 41 12 14 20 32 21 51 2 23-3 44-24 57-19 11-39 12-58-1-21-15-30-35-25-61 4-19 13-35 25-50 13-16 11-29-11-36-11-3-22-7-43-16z m-190 3c-65 12-67 34-39 75 24 33 8 76-22 90-23 10-43 4-60-12-21-22-23-52-7-73 34-46 23-66-29-80-25-7-31-33-28-58 1-15 6-27 22-28 23-3 47-8 63 16 21 31 54 48 100 70z m386 466c0 10-1 20-2 31-5 69-26 133-80 178-57 48-106 69-211 76-3 0-6 0-9 0-3 0-6 0-10 0-104-7-154-28-211-76-53-45-74-109-79-178-1-11-2-21-2-31-3-56-6-84 19-85 13-1 30-2 58-2 39 1 52 18 49 54-4 63 15 116 66 158 33 27 72 38 110 37 37 1 76-10 110-37 51-42 70-95 65-158-2-36 11-53 50-54 28 0 44 1 57 2 26 1 23 29 20 85z" horiz-adv-x="1000" />

<glyph glyph-name="category" unicode="&#xe86a;" d="M987-98l-102 106c28 35 45 79 45 127 0 113-92 205-205 205-114 0-206-92-206-205s92-205 206-205c44 0 86 14 120 39l102-106c5-5 13-8 20-8 7 0 14 3 19 8 12 11 12 28 1 39z m-412 233c0 82 67 149 150 149s149-67 149-149c0-82-67-149-149-149s-150 67-150 149z m-202 290h-315c-29 0-53 23-53 53v314c0 29 24 53 53 53h315c29 0 53-24 53-53v-314c0-30-24-53-53-53z m-312 56h308v308h-308v-308z m312 308h0 0z m569-364h-314c-30 0-53 23-53 53v314c0 29 23 53 53 53h314c29 0 53-24 53-53v-314c0-30-24-53-53-53z m-311 56h308v308h-308v-308z m311 308h0 0z m-569-934h-315c-29 0-53 24-53 53v315c0 29 24 52 53 52h315c29 0 53-23 53-52v-315c0-29-24-53-53-53z m-312 56h308v308h-308v-308z m312 308h0 0z" horiz-adv-x="1000" />

<glyph glyph-name="contact" unicode="&#xe86b;" d="M195 850v-1000h650v1000h-650z m496-615c-8-65-73-126-143-137-72-11-135 6-183 61-76 86-31 217 82 250 8 2 16 5 25 7-3 10-10 11-14 14-46 31-57 95-23 138 35 44 96 50 138 13 41-36 42-99 3-139-8-8-27-12-25-23 2-11 21-9 32-14 74-27 117-95 108-170z m187 382h100v233h-100v-233z m0-284h100v217h-100v-217z m0-283h100v217h-100v-217z m-850-153v905c0 26 22 48 49 48h85v-1001h-85c-27 0-49 22-49 48z" horiz-adv-x="1000" />

<glyph glyph-name="events" unicode="&#xe86c;" d="M804 773c44 0 83 6 121-7 45-16 74-57 75-107 0-76 0-152 0-228 0-151 0-302 0-454 0-82-46-127-128-127-248 0-496 0-745 0-81 0-127 46-127 128 0 225 0 449 0 674 0 61 32 106 88 117 31 6 63 4 95 4 4 0 10-9 10-14 2-25 0-50 3-74 5-38 38-66 75-65 39 1 70 31 73 70 1 22 1 44 1 66-1 12 3 18 16 18 93-1 186 0 279 0 12 0 15-5 15-16 0-23 0-46 1-69 3-38 33-67 71-69 38-2 73 26 76 64 3 28 1 58 1 89z m-766-234c0-8 0-15 0-21 0-188-1-348 0-536 0-41 35-90 78-90 272 0 489 0 760 0 45 0 86 46 86 105 0 187 0 333 0 520 0 7 0 14-1 22-307 0-614 0-923 0z m192 156c1-24 15-38 38-38 24-1 40 12 41 37 1 39 1 79 0 119-1 24-18 38-41 37-23-1-37-16-38-40 0-18 0-37 0-56 0-20 0-39 0-59z m540 115c-1 24-15 39-37 40-23 1-41-13-42-37-1-40-1-79 0-119 1-25 17-38 41-37 23 0 37 15 38 40 0 19 0 38 0 57 0 18 0 37 0 56z m-499-480c1 81 65 145 145 144 81-1 144-65 143-146 0-81-65-145-145-145-79 1-143 67-143 147z m358-313c-10 66-42 121-96 160-8 6-20 7-29 1-45-28-135-26-177 0-10 5-21 5-30-1-52-38-80-90-96-148-10-37 3-63 47-63 172 0 189 0 336 2 41 1 47 35 45 49z m173 64c-9 55-35 100-79 132-8 6-17 6-25 1-32-20-92-21-131-8 54-41 89-99 103-167 25 1 54 1 94 2 35 0 39 28 38 40z m-227 149c15-7 32-11 49-11 66-1 120 52 120 119 0 67-52 120-118 121-22 0-42-6-60-16 24-32 38-72 37-115 0-36-10-70-28-98z" horiz-adv-x="1000" />

<glyph glyph-name="group-1" unicode="&#xe86d;" d="M882-145c-4 0-8 1-13 3l-125 66-123-66c-9-5-20-4-29 2-9 6-13 17-11 28l23 138-100 101c-8 7-10 18-7 28 3 10 12 18 22 19l139 19 61 127c5 9 14 15 25 15s21-6 26-15l63-127 138-20c11-1 20-8 23-18s0-21-7-29l-100-100 23-138c1-11-3-22-12-28-5-3-10-5-16-5z m-138 128c4 0 9-1 13-3l88-46-16 97c-2 9 1 18 8 25l70 70-97 14c-9 1-17 7-21 15l-45 89-43-89c-4-9-12-15-21-16l-97-14 70-70c6-6 9-15 8-24l-16-97 86 45c4 3 9 4 13 4z m-68 185l0 0 0 0z m-226 179c-137 0-249 111-249 249s112 249 249 249 249-111 249-249-111-249-249-249z m0 442c-106 0-193-87-193-193s87-193 193-193 193 87 193 193-86 193-193 193z m-389-906v181c0 87 71 157 158 157h265c15 0 28 13 28 28 0 16-13 28-28 28h-265c-118 0-214-96-214-213v-181c0-15 13-28 28-28s28 13 28 28z" horiz-adv-x="1000" />

<glyph glyph-name="license" unicode="&#xe86e;" d="M72 354c0 136 0 271 0 406 0 65 24 90 88 90 226 0 452 0 678 0 66 0 91-25 91-92 0-271 0-541 0-812 0-73-23-96-96-96-224 0-449 0-673 0-64 0-88 25-88 90-1 138 0 276 0 414z m782-431c0 287 0 570 0 852-239 0-474 0-709 0 0-286 0-568 0-852 237 0 472 0 709 0z m-353 284c78 0 155 0 232 0 26 0 51 4 51 35 1 31-23 37-49 37-156-1-312-1-468 0-26 0-51-4-51-35 0-35 27-37 54-37 77 0 154 0 231 0 0 0 0 0 0 0z m-294 187c-7-25 2-44 33-44 120 0 133 0 236 2 29 0 33 24 31 34-7 51-34 92-78 120-63-70-80-70-143-1-45-26-67-66-79-111z m151 313c-56 0-101-45-102-101 0-57 45-103 100-103 56-1 102 45 102 101 1 57-44 102-100 103z m143-643c78 0 155 0 232 0 26 0 51 4 51 35 1 31-23 37-49 37-156 0-312-1-468 0-26 0-51-4-51-35 0-35 27-37 54-37 77 0 154 0 231 0 0 0 0 0 0 0z m180 358c27 0 55 0 83-1 10 0 19 4 19 35 0 32-9 37-18 37-56 0-113 0-169 0-9 0-18-3-19-35 0-34 10-37 20-37 28 1 56 0 84 0 0 0 0 0 0 1z m0 142c27 0 55 1 83 0 10 0 19 4 19 35 0 32-9 37-18 37-56 0-113 0-169 0-9 0-18-4-19-35 0-35 10-37 20-37 28 0 56 0 84 0 0 0 0 0 0 0z" horiz-adv-x="1000" />

<glyph glyph-name="lookups" unicode="&#xe86f;" d="M755 391v-177c0-16-12-28-28-28-15 0-28 12-28 28v177c0 15 13 28 28 28 16 0 28-13 28-28z m-141 205c-16 0-28-13-28-28v-354c0-16 12-28 28-28 15 0 28 12 28 28v354c0 15-13 28-28 28z m-114-96c-15 0-28-13-28-28v-258c0-16 13-28 28-28 16 0 28 12 28 28v258c0 15-12 28-28 28z m-114-91c-15 0-28-12-28-28v-167c0-16 13-28 28-28 16 0 29 12 29 28v167c0 16-13 28-29 28z m-113-72c-16 0-28-13-28-28v-95c0-16 12-28 28-28s28 12 28 28v95c0 15-13 28-28 28z m526-294c-7-6-15-12-23-17l107-125c11-11 9-29-2-39-6-5-12-7-19-7-8 0-15 3-21 10l-113 130c-70-39-149-59-228-59-132 0-263 55-355 162-80 92-118 210-108 330 10 122 68 232 164 310 195 162 489 137 654-54 0 0 0 0 0 0 80-93 118-210 108-331-10-121-68-231-164-310z m108 315c9 106-24 208-94 289-81 94-197 142-313 142-93 0-187-31-264-94-83-69-134-165-143-271-9-106 25-209 95-290 145-168 403-190 576-48 83 69 134 166 143 272z" horiz-adv-x="1000" />

</font>
</defs>
</svg>
